» » Darr @ the Mall (2014) 720p - HD-DVDRip - AVC - AAC-Bollywooda2z

Darr @ the Mall (2014) 720p - HD-DVDRip - AVC - AAC-Bollywooda2z

Darr @ the Mall (2014) 720p - HD-DVDRip - AVC - AAC-Bollywooda2z



General
Complete name               : E:\Download C 2\1\Darr@The.Mall.720p.HD-DVD.AVC.AAC-BollywoodA2Z.mp4
Format                      : MPEG-4
Format profile              : Base Media
Codec ID                    : isom (isom/avc1/mp42)
File size                   : 1.04 GiB
Duration                    : 1 h 55 min
Overall bit rate mode       : Variable
Overall bit rate            : 1 296 kb/s
Encoded date                : UTC 2017-10-18 00:06:33
Tagged date                 : UTC 2017-10-18 00:06:33

Video
ID                          : 1
Format                      : AVC
Format/Info                 : Advanced Video Codec
Format profile              : High@L3.1
Format settings, CABAC      : Yes
Format settings, RefFrames  : 4 frames
Format settings, GOP        : M=3, N=25
Codec ID                    : avc1
Codec ID/Info               : Advanced Video Coding
Duration                    : 1 h 55 min
Bit rate                    : 1 196 kb/s
Maximum bit rate            : 2 993 kb/s
Width                       : 1 280 pixels
Height                      : 720 pixels
Display aspect ratio        : 16:9
Frame rate mode             : Constant
Frame rate                  : 25.000 FPS
Color space                 : YUV
Chroma subsampling          : 4:2:0
Bit depth                   : 8 bits
Scan type                   : Progressive
Bits/(Pixel*Frame)          : 0.052
Stream size                 : 986 MiB (92%)
Writing library             : Zencoder Video Encoding System
Encoded date                : UTC 2017-10-17 23:48:11
Tagged date                 : UTC 2017-10-18 00:06:35
Color range                 : Limited
Color primaries             : BT.709
Transfer characteristics    : BT.709
Matrix coefficients         : BT.709

Audio
ID                          : 2
Format                      : AAC
Format/Info                 : Advanced Audio Codec
Format profile              : LC
Codec ID                    : 40
Duration                    : 1 h 55 min
Bit rate mode               : Variable
Bit rate                    : 96.0 kb/s
Maximum bit rate            : 116 kb/s
Channel(s)                  : 2 channels
Channel positions           : Front: L R
Sampling rate               : 48.0 kHz
Frame rate                  : 46.875 FPS (1024 SPF)
Compression mode            : Lossy
Stream size                 : 78.8 MiB (7%)
Encoded date                : UTC 2017-10-17 23:29:28
Tagged date                 : UTC 2017-10-18 00:06:35




Darr @ the Mall (2014) 720p - HD-DVDRip - AVC - AAC-Bollywooda2z


SINGLE DIRECT FAST LINKS

http://www.heroupload.us/72aff188fcf7b883/Darr@The.Mall.720p.HD-DVD.AVC.AAC-BollywoodA2Z.mp4



http://filefloater.com/29S9/Darr@The.Mall.720p.HD-DVD.AVC.AAC-BollywoodA2Z.mp4



Buy Premium From My Links & Support Me

Tags: Darr

Comments:

Dear visitor, you went to the site as unregistered user
We encourage you to create an account or enter the site under your name

Add comment

Name:*
E-Mail:*
Text:
Bold Italic Underline Strike | Align left Center Align right | Insert smilies Insert link URLInsert protected URL Select color | Add Hidden Text Insert Quote Convert selected text from selection to Cyrillic (Russian) alphabet Insert spoiler
Enter the code: *

Create an account

Advertising