» » Kaala (2018) Telugu - True HQ WEB-HD - 1080p - UNTOUCHED - x264 - AAC - ESub-TMV

Kaala (2018) Telugu - True HQ WEB-HD - 1080p - UNTOUCHED - x264 - AAC - ESub-TMV

Kaala (2018) Telugu - True HQ WEB-HD - 1080p - UNTOUCHED - x264 - AAC - ESub-TMV




Format                      : Matroska
Format version              : Version 4 / Version 2
File size                   : 10.2 GiB
Duration                    : 2 h 40 min
Overall bit rate            : 9 071 kb/s
Encoded date                : UTC 2018-07-27 01:53:49
Writing application         : mkvmerge v8.2.0 ('World of Adventure') 64bit
Writing library             : libebml v1.3.1 + libmatroska v1.4.2

Video
ID                          : 1
Format                      : AVC
Format/Info                 : Advanced Video Codec
Format profile              : High@L4.1
Format settings, CABAC      : Yes
Format settings, RefFrames  : 4 frames
Codec ID                    : V_MPEG4/ISO/AVC
Duration                    : 2 h 40 min
Bit rate                    : 8 750 kb/s
Width                       : 1 920 pixels
Height                      : 816 pixels
Display aspect ratio        : 2.35:1
Frame rate mode             : Constant
Frame rate                  : 23.976 (23976/1000) FPS
Standard                    : Component
Color space                 : YUV
Chroma subsampling          : 4:2:0
Bit depth                   : 8 bits
Scan type                   : Progressive
Bits/(Pixel*Frame)          : 0.233
Stream size                 : 9.80 GiB (96%)
Language                    : Telugu
Default                     : Yes
Forced                      : No
Color range                 : Limited
Color primaries             : BT.709
Transfer characteristics    : BT.709
Matrix coefficients         : BT.709

Audio
ID                          : 2
Format                      : AAC
Format/Info                 : Advanced Audio Codec
Format profile              : LC
Codec ID                    : A_AAC
Duration                    : 2 h 40 min
Bit rate                    : 318 kb/s
Channel(s)                  : 2 channels
Channel positions           : Front: L R
Sampling rate               : 44.1 kHz
Frame rate                  : 43.066 FPS (1024 SPF)
Compression mode            : Lossy
Stream size                 : 364 MiB (4%)
Language                    : Telugu
Default                     : Yes
Forced                      : No

Text
ID                          : 3
Format                      : UTF-8
Codec ID                    : S_TEXT/UTF8
Codec ID/Info               : UTF-8 Plain Text
Duration                    : 2 h 35 min
Bit rate                    : 66 b/s
Count of elements           : 2859
Stream size                 : 75.9 KiB (0%)
Language                    : English
Default                     : Yes
Forced                      : No




Kaala (2018) Telugu - True HQ WEB-HD - 1080p - UNTOUCHED - x264 - AAC - ESub-TMVKaala (2018) Telugu - True HQ WEB-HD - 1080p - UNTOUCHED - x264 - AAC - ESub-TMVKaala (2018) Telugu - True HQ WEB-HD - 1080p - UNTOUCHED - x264 - AAC - ESub-TMVKaala (2018) Telugu - True HQ WEB-HD - 1080p - UNTOUCHED - x264 - AAC - ESub-TMVKaala (2018) Telugu - True HQ WEB-HD - 1080p - UNTOUCHED - x264 - AAC - ESub-TMVKaala (2018) Telugu - True HQ WEB-HD - 1080p - UNTOUCHED - x264 - AAC - ESub-TMVKaala (2018) Telugu - True HQ WEB-HD - 1080p - UNTOUCHED - x264 - AAC - ESub-TMV


SINGLE DIRECT FAST LINKS

http://www.heroupload.us/0ed846392ae718b0/Kaala.2018.Telugu.Original.Version.True.HQ.WEB-HD.1080p.UNTOUCHED.AVC.AAC.ESub-TMV.mkv


1GB LINKS

http://www.heroupload.us/5a3c27c93741a099/Kaala.2018.Telugu.Original.Version.True.HQ.WEB-HD.1080p.UNTOUCHED.AVC.AAC.ESub-TMV.part01.rar
http://www.heroupload.us/9647d06f78b7e899/Kaala.2018.Telugu.Original.Version.True.HQ.WEB-HD.1080p.UNTOUCHED.AVC.AAC.ESub-TMV.part02.rar
http://www.heroupload.us/25fbd9db1e8816ef/Kaala.2018.Telugu.Original.Version.True.HQ.WEB-HD.1080p.UNTOUCHED.AVC.AAC.ESub-TMV.part03.rar
http://www.heroupload.us/030f6f437b4ceb6d/Kaala.2018.Telugu.Original.Version.True.HQ.WEB-HD.1080p.UNTOUCHED.AVC.AAC.ESub-TMV.part04.rar
http://www.heroupload.us/34945858fad62807/Kaala.2018.Telugu.Original.Version.True.HQ.WEB-HD.1080p.UNTOUCHED.AVC.AAC.ESub-TMV.part05.rar
http://www.heroupload.us/a25f55a5dafaa6b6/Kaala.2018.Telugu.Original.Version.True.HQ.WEB-HD.1080p.UNTOUCHED.AVC.AAC.ESub-TMV.part06.rar
http://www.heroupload.us/cb13fc6479a40ec4/Kaala.2018.Telugu.Original.Version.True.HQ.WEB-HD.1080p.UNTOUCHED.AVC.AAC.ESub-TMV.part07.rar
http://www.heroupload.us/2cf5a9712c2bdba1/Kaala.2018.Telugu.Original.Version.True.HQ.WEB-HD.1080p.UNTOUCHED.AVC.AAC.ESub-TMV.part08.rar
http://www.heroupload.us/817ad9d3eb07b21c/Kaala.2018.Telugu.Original.Version.True.HQ.WEB-HD.1080p.UNTOUCHED.AVC.AAC.ESub-TMV.part09.rar
http://www.heroupload.us/cbeda41ed39d660a/Kaala.2018.Telugu.Original.Version.True.HQ.WEB-HD.1080p.UNTOUCHED.AVC.AAC.ESub-TMV.part10.rar
http://www.heroupload.us/cf4fe7e01a820d43/Kaala.2018.Telugu.Original.Version.True.HQ.WEB-HD.1080p.UNTOUCHED.AVC.AAC.ESub-TMV.part11.rar



http://filefloater.com/1JX8/Kaala.2018.Telugu.Original.Version.True.HQ.WEB-HD.1080p.UNTOUCHED.AVC.AAC.ESub-TMV.part01.rar
http://filefloater.com/1JX9/Kaala.2018.Telugu.Original.Version.True.HQ.WEB-HD.1080p.UNTOUCHED.AVC.AAC.ESub-TMV.part02.rar
http://filefloater.com/29Y4/Kaala.2018.Telugu.Original.Version.True.HQ.WEB-HD.1080p.UNTOUCHED.AVC.AAC.ESub-TMV.part03.rar
http://filefloater.com/29Y5/Kaala.2018.Telugu.Original.Version.True.HQ.WEB-HD.1080p.UNTOUCHED.AVC.AAC.ESub-TMV.part04.rar
http://filefloater.com/29Y6/Kaala.2018.Telugu.Original.Version.True.HQ.WEB-HD.1080p.UNTOUCHED.AVC.AAC.ESub-TMV.part05.rar
http://filefloater.com/29Y7/Kaala.2018.Telugu.Original.Version.True.HQ.WEB-HD.1080p.UNTOUCHED.AVC.AAC.ESub-TMV.part06.rar
http://filefloater.com/29Y8/Kaala.2018.Telugu.Original.Version.True.HQ.WEB-HD.1080p.UNTOUCHED.AVC.AAC.ESub-TMV.part07.rar
http://filefloater.com/29Y9/Kaala.2018.Telugu.Original.Version.True.HQ.WEB-HD.1080p.UNTOUCHED.AVC.AAC.ESub-TMV.part08.rar
http://filefloater.com/29Ya/Kaala.2018.Telugu.Original.Version.True.HQ.WEB-HD.1080p.UNTOUCHED.AVC.AAC.ESub-TMV.part09.rar
http://filefloater.com/29Yb/Kaala.2018.Telugu.Original.Version.True.HQ.WEB-HD.1080p.UNTOUCHED.AVC.AAC.ESub-TMV.part10.rar
http://filefloater.com/29Yc/Kaala.2018.Telugu.Original.Version.True.HQ.WEB-HD.1080p.UNTOUCHED.AVC.AAC.ESub-TMV.part11.rar


Buy Premium From My Links & Support Me

Tags: Kaala

Comments:

Dear visitor, you went to the site as unregistered user
We encourage you to create an account or enter the site under your name

paco3can

28 July 2018 17:09 User Offline


paco3can

29 July 2018 16:53 User Offline


Add comment

Name:*
E-Mail:*
Text:
Bold Italic Underline Strike | Align left Center Align right | Insert smilies Insert link URLInsert protected URL Select color | Add Hidden Text Insert Quote Convert selected text from selection to Cyrillic (Russian) alphabet Insert spoiler
Enter the code: *

Create an account

Advertising