» » Kaala (2018) Tamil - 720p - WEB-HDRip - x264 - AC3 5.1 - ESubs-MTR

Kaala (2018) Tamil - 720p - WEB-HDRip - x264 - AC3 5.1 - ESubs-MTR

Kaala (2018) Tamil - 720p - WEB-HDRip - x264 - AC3 5.1 - ESubs-MTR





Format                      : Matroska
Format version              : Version 4 / Version 2
File size                   : 1.78 GiB
Duration                    : 2 h 38 min
Overall bit rate            : 1 606 kb/s
Encoded date                : UTC 2018-07-26 18:18:59
Writing application         : mkvmerge v7.8.0 ('River Man') 64bit built on Mar 27 2015 16:31:37
Writing library             : libebml v1.3.1 + libmatroska v1.4.2

Video
ID                          : 1
Format                      : AVC
Format/Info                 : Advanced Video Codec
Format profile              : High@L3.1
Format settings, CABAC      : Yes
Format settings, RefFrames  : 4 frames
Codec ID                    : V_MPEG4/ISO/AVC
Duration                    : 2 h 38 min
Bit rate                    : 1 468 kb/s
Width                       : 1 280 pixels
Height                      : 720 pixels
Display aspect ratio        : 16:9
Frame rate mode             : Constant
Frame rate                  : 30.000 FPS
Color space                 : YUV
Chroma subsampling          : 4:2:0
Bit depth                   : 8 bits
Scan type                   : Progressive
Bits/(Pixel*Frame)          : 0.053
Stream size                 : 1.63 GiB (92%)
Writing library             : x264 core 148 r2744 b97ae06
Encoding settings           : cabac=1 / ref=3 / deblock=1:0:0 / analyse=0x3:0x113 / me=hex / subme=7 / psy=1 / psy_rd=1.00:0.00 / mixed_ref=1 / me_range=16 / chroma_me=1 / trellis=1 / 8x8dct=1 / cqm=0 / deadzone=21,11 / fast_pskip=1 / chroma_qp_offset=-2 / threads=22 / lookahead_threads=3 / sliced_threads=0 / nr=0 / decimate=1 / interlaced=0 / bluray_compat=0 / constrained_intra=0 / bframes=3 / b_pyramid=2 / b_adapt=1 / b_bias=0 / direct=1 / weightb=1 / open_gop=0 / weightp=2 / keyint=300 / keyint_min=30 / scenecut=40 / intra_refresh=0 / rc_lookahead=40 / rc=abr / mbtree=1 / bitrate=1468 / ratetol=1.0 / qcomp=0.60 / qpmin=0 / qpmax=69 / qpstep=4 / ip_ratio=1.40 / aq=1:1.00
Language                    : English
Default                     : Yes
Forced                      : No

Audio
ID                          : 2
Format                      : MPEG Audio
Format version              : Version 1
Format profile              : Layer 3
Mode                        : Joint stereo
Mode extension              : MS Stereo
Codec ID                    : A_MPEG/L3
Codec ID/Hint               : MP3
Duration                    : 2 h 38 min
Bit rate mode               : Constant
Bit rate                    : 128 kb/s
Channel(s)                  : 2 channels
Sampling rate               : 48.0 kHz
Frame rate                  : 41.667 FPS (1152 SPF)
Compression mode            : Lossy
Stream size                 : 145 MiB (8%)
Writing library             : LAME3.99r
Encoding settings           : -m j -V 4 -q 3 -lowpass 17 -b 128
Language                    : English
Default                     : Yes
Forced                      : No

Text
ID                          : 3
Format                      : UTF-8
Codec ID                    : S_TEXT/UTF8
Codec ID/Info               : UTF-8 Plain Text
Duration                    : 2 h 36 min
Bit rate                    : 71 b/s
Count of elements           : 2948
Stream size                 : 82.0 KiB (0%)
Language                    : English
Default                     : No
Forced                      : No



Kaala (2018) Tamil - 720p - WEB-HDRip - x264 - AC3 5.1 - ESubs-MTRKaala (2018) Tamil - 720p - WEB-HDRip - x264 - AC3 5.1 - ESubs-MTRKaala (2018) Tamil - 720p - WEB-HDRip - x264 - AC3 5.1 - ESubs-MTRKaala (2018) Tamil - 720p - WEB-HDRip - x264 - AC3 5.1 - ESubs-MTRKaala (2018) Tamil - 720p - WEB-HDRip - x264 - AC3 5.1 - ESubs-MTRKaala (2018) Tamil - 720p - WEB-HDRip - x264 - AC3 5.1 - ESubs-MTR

SINGLE DIRECT FAST LINKS

http://www.heroupload.us/e7020fa26dad1190/Kaala.2018.Tamil.Proper.720p.HD.x264.ESubs-MTR.mkv



http://filefloater.com/1JX2/Kaala.2018.Tamil.Proper.720p.HD.x264.ESubs-MTR.mkv




Buy Premium From My Links & Support Me

Tags: Kaala

Comments:

Dear visitor, you went to the site as unregistered user
We encourage you to create an account or enter the site under your name

paco3can

28 July 2018 17:14 User Offline


Add comment

Name:*
E-Mail:*
Text:
Bold Italic Underline Strike | Align left Center Align right | Insert smilies Insert link URLInsert protected URL Select color | Add Hidden Text Insert Quote Convert selected text from selection to Cyrillic (Russian) alphabet Insert spoiler
Enter the code: *

Create an account

Advertising