» » Raja Babu (1994) 1080p WebHD AVC AAC ESub-DTOne

Raja Babu (1994) 1080p WebHD AVC AAC ESub-DTOne

Raja Babu (1994) 1080p WebHD AVC AAC ESub-DTOne





Format                      : Matroska
Format version              : Version 4 / Version 2
File size                  : 6.12 GiB
Duration                    : 2 h 24 min
Overall bit rate            : 6 061 kb/s
Encoded date                : UTC 2016-06-25 10:03:28
Writing application        : mkvmerge v9.1.0 ('Little Earthquakes') 64bit
Writing library            : libebml v1.3.3 + libmatroska v1.4.4

Video
ID                          : 1
Format                      : AVC
Format/Info                : Advanced Video Codec
Format profile              : High@L4
Format settings            : CABAC / 4 Ref Frames
Format settings, CABAC      : Yes
Format settings, ReFrames  : 4 frames
Format settings, GOP        : M=4, N=30
Codec ID                    : V_MPEG4/ISO/AVC
Duration                    : 2 h 24 min
Bit rate                    : 5 873 kb/s
Width                      : 1 920 pixels
Height                      : 1 080 pixels
Display aspect ratio        : 16:9
Frame rate mode            : Constant
Frame rate                  : 25.000 FPS
Color space                : YUV
Chroma subsampling          : 4:2:0
Bit depth                  : 8 bits
Scan type                  : Progressive
Bits/(Pixel*Frame)          : 0.113
Stream size                : 5.92 GiB (97%)
Writing library            : x264 core 133 r2 a3ac64b
Encoding settings          : cabac=1 / ref=3 / deblock=1:0:0 / analyse=0x3:0x113 / me=hex / subme=7 / psy=1 / psy_rd=1.00:0.00 / mixed_ref=1 / me_range=16 / chroma_me=1 / trellis=1 / 8x8dct=1 / cqm=0 / deadzone=21,11 / fast_pskip=1 / chroma_qp_offset=-2 / threads=12 / lookahead_threads=2 / sliced_threads=0 / nr=0 / decimate=1 / interlaced=0 / bluray_compat=0 / constrained_intra=0 / bframes=3 / b_pyramid=2 / b_adapt=1 / b_bias=0 / direct=1 / weightb=1 / open_gop=0 / weightp=2 / keyint=30 / keyint_min=3 / scenecut=40 / intra_refresh=0 / rc_lookahead=30 / rc=abr / mbtree=1 / bitrate=5873 / ratetol=1.0 / qcomp=0.60 / qpmin=0 / qpmax=69 / qpstep=4 / ip_ratio=1.40 / aq=1:1.00
Default                    : Yes
Forced                      : No

Audio
ID                          : 2
Format                      : AAC
Format/Info                : Advanced Audio Codec
Format profile              : LC
Codec ID                    : A_AAC-2
Duration                    : 2 h 24 min
Bit rate                    : 192 kb/s
Channel(s)                  : 2 channels
Channel positions          : Front: L R
Sampling rate              : 48.0 kHz
Frame rate                  : 46.875 FPS (1024 SPF)
Compression mode            : Lossy
Delay relative to video    : -43 ms
Stream size                : 201 MiB (3%)
Default                    : Yes
Forced                      : No

Subtitle     : English



Raja Babu (1994) 1080p WebHD AVC AAC ESub-DTOne Raja Babu (1994) 1080p WebHD AVC AAC ESub-DTOne Raja Babu (1994) 1080p WebHD AVC AAC ESub-DTOne Raja Babu (1994) 1080p WebHD AVC AAC ESub-DTOne Raja Babu (1994) 1080p WebHD AVC AAC ESub-DTOne


SINGLE DIRECT FAST LINKS

http://www.heroupload.us/3161f2b32b3fd1a0/Raja.Babu.1994.1080p.WebHD.AVC.AAC.ESub-DTOne.mkv


1GB LINKS

http://www.heroupload.us/4f3b18ebed8c496f/Raja.Babu.1994.1080p.WebHD.AVC.AAC.ESub-DTOne.part1.rar
http://www.heroupload.us/429a06a8a3c2b016/Raja.Babu.1994.1080p.WebHD.AVC.AAC.ESub-DTOne.part2.rar
http://www.heroupload.us/17e0b2677b8c3cc3/Raja.Babu.1994.1080p.WebHD.AVC.AAC.ESub-DTOne.part3.rar
http://www.heroupload.us/08405c1c6f7fe19b/Raja.Babu.1994.1080p.WebHD.AVC.AAC.ESub-DTOne.part4.rar
http://www.heroupload.us/929d50e16cd36d88/Raja.Babu.1994.1080p.WebHD.AVC.AAC.ESub-DTOne.part5.rar
http://www.heroupload.us/84bd3195eeda407f/Raja.Babu.1994.1080p.WebHD.AVC.AAC.ESub-DTOne.part6.rar
http://www.heroupload.us/caf4b1316bf2b018/Raja.Babu.1994.1080p.WebHD.AVC.AAC.ESub-DTOne.part7.rar
http://www.heroupload.us/606167128aa3d5dc/Raja.Babu.1994.1080p.WebHD.AVC.AAC.ESub-DTOne.srt



http://filefloater.com/1iKJ/Raja.Babu.1994.1080p.WebHD.AVC.AAC.ESub-DTOne.part1.rar
http://filefloater.com/1iKM/Raja.Babu.1994.1080p.WebHD.AVC.AAC.ESub-DTOne.part2.rar
http://filefloater.com/1iKR/Raja.Babu.1994.1080p.WebHD.AVC.AAC.ESub-DTOne.part3.rar
http://filefloater.com/SK1/Raja.Babu.1994.1080p.WebHD.AVC.AAC.ESub-DTOne.part4.rar
http://filefloater.com/SK3/Raja.Babu.1994.1080p.WebHD.AVC.AAC.ESub-DTOne.part5.rar
http://filefloater.com/SK5/Raja.Babu.1994.1080p.WebHD.AVC.AAC.ESub-DTOne.part6.rar
http://filefloater.com/SK6/Raja.Babu.1994.1080p.WebHD.AVC.AAC.ESub-DTOne.part7.rar
http://filefloater.com/SK7/Raja.Babu.1994.1080p.WebHD.AVC.AAC.ESub-DTOne.srt


Tags: Raja

Comments:

Dear visitor, you went to the site as unregistered user
We encourage you to create an account or enter the site under your name

Add comment

Name:*
E-Mail:*
Text:
Bold Italic Underline Strike | Align left Center Align right | Insert smilies Insert link URLInsert protected URL Select color | Add Hidden Text Insert Quote Convert selected text from selection to Cyrillic (Russian) alphabet Insert spoiler
Enter the code: *

Create an account

Advertising