» » Dandupalyam 3 (2018) Telugu - 720p - PreDVDRip - x264 - MP3-TMV

Dandupalyam 3 (2018) Telugu - 720p - PreDVDRip - x264 - MP3-TMV

Dandupalyam 3 (2018) Telugu - 720p - PreDVDRip - x264 - MP3-TMV





General
Format                      : Matroska
Format version              : Version 4 / Version 2
File size                   : 1.38 GiB
Duration                    : 1 h 43 min
Overall bit rate            : 1 916 kb/s
Encoded date                : UTC 2018-03-17 05:15:04
Writing application         : mkvmerge v7.1.0 ('Good Love') 32bit built on Jul 27 2014 12:59:18
Writing library             : libebml v1.3.0 + libmatroska v1.4.1

Video
ID                          : 1
Format                      : AVC
Format/Info                 : Advanced Video Codec
Format profile              : High@L3.1
Format settings, CABAC      : Yes
Format settings, RefFrames  : 4 frames
Codec ID                    : V_MPEG4/ISO/AVC
Duration                    : 1 h 43 min
Bit rate                    : 1 786 kb/s
Width                       : 1 280 pixels
Height                      : 544 pixels
Display aspect ratio        : 2.35:1
Frame rate mode             : Constant
Frame rate                  : 24.000 FPS
Color space                 : YUV
Chroma subsampling          : 4:2:0
Bit depth                   : 8 bits
Scan type                   : Progressive
Bits/(Pixel*Frame)          : 0.107
Stream size                 : 1.29 GiB (93%)
Writing library             : x264 core 155 r2901 7d0ff22
Encoding settings           : cabac=1 / ref=3 / deblock=1:0:0 / analyse=0x3:0x113 / me=hex / subme=7 / psy=1 / psy_rd=1.00:0.00 / mixed_ref=1 / me_range=16 / chroma_me=1 / trellis=1 / 8x8dct=1 / cqm=0 / deadzone=21,11 / fast_pskip=1 / chroma_qp_offset=-2 / threads=17 / lookahead_threads=2 / sliced_threads=0 / nr=0 / decimate=1 / interlaced=0 / bluray_compat=0 / constrained_intra=0 / bframes=3 / b_pyramid=2 / b_adapt=1 / b_bias=0 / direct=1 / weightb=1 / open_gop=0 / weightp=2 / keyint=240 / keyint_min=24 / scenecut=40 / intra_refresh=0 / rc_lookahead=40 / rc=2pass / mbtree=1 / bitrate=1786 / ratetol=1.0 / qcomp=0.60 / qpmin=0 / qpmax=69 / qpstep=4 / cplxblur=20.0 / qblur=0.5 / ip_ratio=1.40 / aq=1:1.00
Language                    : Telugu
Default                     : Yes
Forced                      : No

Audio
ID                          : 2
Format                      : MPEG Audio
Format version              : Version 1
Format profile              : Layer 3
Mode                        : Joint stereo
Mode extension              : MS Stereo
Codec ID                    : A_MPEG/L3
Codec ID/Hint               : MP3
Duration                    : 1 h 43 min
Bit rate mode               : Constant
Bit rate                    : 128 kb/s
Channel(s)                  : 2 channels
Sampling rate               : 44.1 kHz
Frame rate                  : 38.281 FPS (1152 SPF)
Compression mode            : Lossy
Stream size                 : 94.4 MiB (7%)
Writing library             : LAME3.100ª
Language                    : Telugu
Default                     : Yes
Forced                      : No



Dandupalyam 3 (2018) Telugu - 720p - PreDVDRip - x264 - MP3-TMVDandupalyam 3 (2018) Telugu - 720p - PreDVDRip - x264 - MP3-TMVDandupalyam 3 (2018) Telugu - 720p - PreDVDRip - x264 - MP3-TMVDandupalyam 3 (2018) Telugu - 720p - PreDVDRip - x264 - MP3-TMVDandupalyam 3 (2018) Telugu - 720p - PreDVDRip - x264 - MP3-TMV


SINGLE DIRECT FAST LINKS

http://www.heroupload.us/1ddab1821a6f57e9/Dandupalyam.3.2018.Telugu.720p.x264-TMV.mkv



http://filefloater.com/7vv/Dandupalyam.3.2018.Telugu.720p.x264-TMV.mkv





Comments:

Dear visitor, you went to the site as unregistered user
We encourage you to create an account or enter the site under your name

Agustinwhity

28 March 2018 14:15

viagra dosage forum google viagra dosage recommendations
viagra generic date name of pfizer generic viagra

generic viagra prices walmart <a href="http://jud10.org/">generic viagra 100mg sildenafil meds express</a>
walmart cost of generic viagra <a href="http://www.robertmachowicz.pl/picture.php?/111/list/111,1149,106,1198
,403,1303,603,30,1177,1056,48,53,1120,1306,1052&comments_order=DESC">gen
eric viagra 100mg sildenafil citrate</a>

Sonjavax

1 April 2018 14:00

cbd oil for dogs reviews cbd oil for dogs with seizures dosage
reviews of cbd oil for anxiety benefits of cbd oil for men

cbd oil for sale amazon <a href="http://cbdoilproducts.org/">cbd oil for anxiety disorder reviews</a>
best potent cbd oil for dogs with cancer <a href="http://cbdoilproducts.org/">cbd hemp oil for pain reviews</a>

Add comment

Name:*
E-Mail:*
Text:
Bold Italic Underline Strike | Align left Center Align right | Insert smilies Insert link URLInsert protected URL Select color | Add Hidden Text Insert Quote Convert selected text from selection to Cyrillic (Russian) alphabet Insert spoiler
Enter the code: *

Create an account

Advertising