» » Kotikokkadu (2018) 720p - HDRip - x264 - Esubs [Dual Audio][Telugu-Line+Tamil]

Kotikokkadu (2018) 720p - HDRip - x264 - Esubs [Dual Audio][Telugu-Line+Tamil]

Kotikokkadu (2018) 720p - HDRip - x264 - Esubs [Dual Audio][Telugu-Line+Tamil]





Format                      : Matroska
Format version              : Version 4 / Version 2
File size                   : 1.34 GiB
Duration                    : 2 h 32 min
Overall bit rate mode       : Variable
Overall bit rate            : 1 256 kb/s
Encoded date                : UTC 2018-03-09 10:14:50
Writing application         : mkvmerge v7.1.0 ('Good Love') 32bit built on Jul 27 2014 12:59:18
Writing library             : libebml v1.3.0 + libmatroska v1.4.1

Video
ID                          : 1
Format                      : AVC
Format/Info                 : Advanced Video Codec
Format profile              : High@L3.1
Format settings, CABAC      : Yes
Format settings, RefFrames  : 4 frames
Codec ID                    : V_MPEG4/ISO/AVC
Duration                    : 2 h 32 min
Bit rate                    : 1 088 kb/s
Width                       : 1 280 pixels
Height                      : 544 pixels
Display aspect ratio        : 2.35:1
Frame rate mode             : Constant
Frame rate                  : 29.970 (30000/1001) FPS
Color space                 : YUV
Chroma subsampling          : 4:2:0
Bit depth                   : 8 bits
Scan type                   : Progressive
Bits/(Pixel*Frame)          : 0.052
Stream size                 : 1.16 GiB (87%)
Writing library             : x264 core 152 r2851 ba24899
Encoding settings           : cabac=1 / ref=3 / deblock=1:0:0 / analyse=0x3:0x113 / me=hex / subme=7 / psy=1 / psy_rd=1.00:0.00 / mixed_ref=1 / me_range=16 / chroma_me=1 / trellis=1 / 8x8dct=1 / cqm=0 / deadzone=21,11 / fast_pskip=1 / chroma_qp_offset=-2 / threads=17 / lookahead_threads=2 / sliced_threads=0 / nr=0 / decimate=1 / interlaced=0 / bluray_compat=0 / constrained_intra=0 / bframes=3 / b_pyramid=2 / b_adapt=1 / b_bias=0 / direct=1 / weightb=1 / open_gop=0 / weightp=2 / keyint=300 / keyint_min=29 / scenecut=40 / intra_refresh=0 / rc_lookahead=40 / rc=2pass / mbtree=1 / bitrate=1088 / ratetol=1.0 / qcomp=0.60 / qpmin=0 / qpmax=69 / qpstep=4 / cplxblur=20.0 / qblur=0.5 / ip_ratio=1.40 / aq=1:1.00
Language                    : Tamil
Default                     : Yes
Forced                      : No

Audio #1
ID                          : 2
Format                      : MPEG Audio
Format version              : Version 1
Format profile              : Layer 3
Mode                        : Joint stereo
Mode extension              : MS Stereo
Codec ID                    : A_MPEG/L3
Codec ID/Hint               : MP3
Duration                    : 2 h 32 min
Bit rate mode               : Variable
Bit rate                    : 85.1 kb/s
Nominal bit rate            : 96.0 kb/s
Channel(s)                  : 2 channels
Sampling rate               : 48.0 kHz
Frame rate                  : 41.667 FPS (1152 SPF)
Compression mode            : Lossy
Stream size                 : 93.1 MiB (7%)
Writing library             : LAME3.99r
Encoding settings           : -m j -V 4 -q 3 -lowpass 15.1 --abr 96
Language                    : Telugu
Default                     : Yes
Forced                      : No

Audio #2
ID                          : 3
Format                      : MPEG Audio
Format version              : Version 1
Format profile              : Layer 3
Mode                        : Joint stereo
Mode extension              : MS Stereo
Codec ID                    : A_MPEG/L3
Codec ID/Hint               : MP3
Duration                    : 2 h 32 min
Bit rate mode               : Variable
Bit rate                    : 80.0 kb/s
Channel(s)                  : 2 channels
Sampling rate               : 48.0 kHz
Frame rate                  : 41.667 FPS (1152 SPF)
Compression mode            : Lossy
Stream size                 : 87.0 MiB (6%)
Writing library             : LAME3.99r
Encoding settings           : -m j -V 4 -q 3 -lowpass 13.5 --abr 80
Language                    : Tamil
Default                     : No
Forced                      : No

Text
ID                          : 4
Format                      : UTF-8
Codec ID                    : S_TEXT/UTF8
Codec ID/Info               : UTF-8 Plain Text
Duration                    : 2 h 32 min
Bit rate                    : 66 b/s
Count of elements           : 2324
Stream size                 : 74.3 KiB (0%)
Language                    : English
Default                     : Yes
Forced                      : No





Kotikokkadu (2018) 720p - HDRip - x264 - Esubs [Dual Audio][Telugu-Line+Tamil]Kotikokkadu (2018) 720p - HDRip - x264 - Esubs [Dual Audio][Telugu-Line+Tamil]Kotikokkadu (2018) 720p - HDRip - x264 - Esubs [Dual Audio][Telugu-Line+Tamil]Kotikokkadu (2018) 720p - HDRip - x264 - Esubs [Dual Audio][Telugu-Line+Tamil]Kotikokkadu (2018) 720p - HDRip - x264 - Esubs [Dual Audio][Telugu-Line+Tamil]


SINGLE DIRECT FAST LINKS


http://www.heroupload.us/37dec0f0fe052587/Maggie.2015.BluRay.720p.Original.Telugu+Tamil+Hindi+English.mkv



http://filefloater.com/7lu/Kotikokkadu.2018.HDRip.720p.Telugu.Line+Tamil-TMV.mkv




Comments:

Dear visitor, you went to the site as unregistered user
We encourage you to create an account or enter the site under your name

Add comment

Name:*
E-Mail:*
Text:
Bold Italic Underline Strike | Align left Center Align right | Insert smilies Insert link URLInsert protected URL Select color | Add Hidden Text Insert Quote Convert selected text from selection to Cyrillic (Russian) alphabet Insert spoiler
Enter the code: *

Create an account

Advertising