» » Savarakathi (2018) Tamil - Ultra HD 4K - Untouched - AVC - Dolby ® 5.1 - Esubs-MTR

Savarakathi (2018) Tamil - Ultra HD 4K - Untouched - AVC - Dolby ® 5.1 - Esubs-MTR

Savarakathi (2018) Tamil - Ultra HD 4K - Untouched - AVC - Dolby ® 5.1 - Esubs-MTR





General
Format                      : MPEG-4
Codec ID                    : M4V  (isom/avc1/mp42)
File size                   : 4.40 GiB
Duration                    : 1 h 52 min
Overall bit rate mode       : Variable
Overall bit rate            : 5 615 kb/s
Encoded date                : UTC 2018-03-08 12:28:04
Tagged date                 : UTC 2018-03-08 12:28:04

Video
ID                          : 1
Format                      : AVC
Format/Info                 : Advanced Video Codec
Format profile              : Main@L5.1
Format settings, CABAC      : Yes
Format settings, RefFrames  : 2 frames
Codec ID                    : avc1
Codec ID/Info               : Advanced Video Coding
Duration                    : 1 h 52 min
Bit rate mode               : Constant
Bit rate                    : 5 000 kb/s
Maximum bit rate            : 12.0 Mb/s
Width                       : 3 840 pixels
Height                      : 2 160 pixels
Display aspect ratio        : 16:9
Frame rate mode             : Constant
Frame rate                  : 24.000 FPS
Color space                 : YUV
Chroma subsampling          : 4:2:0
Bit depth                   : 8 bits
Scan type                   : Progressive
Bits/(Pixel*Frame)          : 0.025
Stream size                 : 3.92 GiB (89%)
Encoded date                : UTC 2018-03-08 12:28:04
Tagged date                 : UTC 2018-03-08 12:28:04

Audio #1
ID                          : 2
Format                      : AAC
Format/Info                 : Advanced Audio Codec
Format profile              : LC
Codec ID                    : 40
Duration                    : 1 h 52 min
Bit rate mode               : Variable
Bit rate                    : 96.0 kb/s
Maximum bit rate            : 99.8 kb/s
Channel(s)                  : 2 channels
Channel positions           : Front: L R
Sampling rate               : 48.0 kHz
Frame rate                  : 46.875 FPS (1024 SPF)
Compression mode            : Lossy
Stream size                 : 75.0 MiB (2%)
Language                    : English
Encoded date                : UTC 2018-03-08 12:28:04
Tagged date                 : UTC 2018-03-08 12:28:04

Audio #2
ID                          : 3
Format                      : AC-3
Format/Info                 : Audio Coding 3
Format settings, Endianness : Big
Codec ID                    : ac-3
Duration                    : 1 h 52 min
Bit rate mode               : Constant
Bit rate                    : 512 kb/s
Channel(s)                  : 6 channels
Channel positions           : Front: L C R, Side: L R, LFE
Sampling rate               : 48.0 kHz
Frame rate                  : 31.250 FPS (1536 SPF)
Bit depth                   : 16 bits
Compression mode            : Lossy
Stream size                 : 411 MiB (9%)
Language                    : English
Service kind                : Complete Main
Encoded date                : UTC 2018-03-08 12:28:04
Tagged date                 : UTC 2018-03-08 12:28:04


Savarakathi (2018) Tamil - Ultra HD 4K - Untouched - AVC - Dolby ® 5.1 - Esubs-MTRSavarakathi (2018) Tamil - Ultra HD 4K - Untouched - AVC - Dolby ® 5.1 - Esubs-MTRSavarakathi (2018) Tamil - Ultra HD 4K - Untouched - AVC - Dolby ® 5.1 - Esubs-MTRSavarakathi (2018) Tamil - Ultra HD 4K - Untouched - AVC - Dolby ® 5.1 - Esubs-MTR



SINGLE DIRECT FAST LINKS
http://www.heroupload.us/d2b2159e5dd4090c/Savarakathi.2018.4K.Untouched.UHD.MP4.ESubs.Tamil-MTR.mp4


http://filefloater.com/7l1/Savarakathi.2018.4K.Untouched.UHD.MP4.ESubs.Tamil-MTR.mp4


1GB LINKS

http://www.heroupload.us/c48ab3919c2f77b1/Savarakathi.2018.4K.Untouched.UHD.MP4.ESubs.Tamil-MTR.part1.rar
http://www.heroupload.us/a97968a88f7bb269/Savarakathi.2018.4K.Untouched.UHD.MP4.ESubs.Tamil-MTR.part2.rar
http://www.heroupload.us/3c51353f499da3e8/Savarakathi.2018.4K.Untouched.UHD.MP4.ESubs.Tamil-MTR.part3.rar
http://www.heroupload.us/1dd8dfba60c64a9b/Savarakathi.2018.4K.Untouched.UHD.MP4.ESubs.Tamil-MTR.part4.rar
http://www.heroupload.us/d2bc33ec8c36d86a/Savarakathi.2018.4K.Untouched.UHD.MP4.ESubs.Tamil-MTR.part5.rar
http://www.heroupload.us/1b1f2e67a88b4d76/Savarakathi.2018.4K.Untouched.UHD.MP4.ESubs.Tamil-MTR.srt



http://filefloater.com/7l2/Savarakathi.2018.4K.Untouched.UHD.MP4.ESubs.Tamil-MTR.part1.rar
http://filefloater.com/7l3/Savarakathi.2018.4K.Untouched.UHD.MP4.ESubs.Tamil-MTR.part2.rar
http://filefloater.com/7l4/Savarakathi.2018.4K.Untouched.UHD.MP4.ESubs.Tamil-MTR.part3.rar
http://filefloater.com/7l5/Savarakathi.2018.4K.Untouched.UHD.MP4.ESubs.Tamil-MTR.part4.rar
http://filefloater.com/7l6/Savarakathi.2018.4K.Untouched.UHD.MP4.ESubs.Tamil-MTR.part5.rar
http://filefloater.com/7l7/Savarakathi.2018.4K.Untouched.UHD.MP4.ESubs.Tamil-MTR.srt


Comments:

Dear visitor, you went to the site as unregistered user
We encourage you to create an account or enter the site under your name

Add comment

Name:*
E-Mail:*
Text:
Bold Italic Underline Strike | Align left Center Align right | Insert smilies Insert link URLInsert protected URL Select color | Add Hidden Text Insert Quote Convert selected text from selection to Cyrillic (Russian) alphabet Insert spoiler
Enter the code: *

Create an account

Advertising