» » Monsoon Shootout (2017) 1080p - WEB-HD - AVC - AAC - DDR Exclusive

Monsoon Shootout (2017) 1080p - WEB-HD - AVC - AAC - DDR Exclusive

Monsoon Shootout (2017) 1080p - WEB-HD - AVC - AAC - DDR Exclusive





General
Format                      : MPEG-4
Format profile              : Base Media
Codec ID                    : isom (isom/iso2/avc1/mp41)
File size                   : 2.76 GiB
Duration                    : 1 h 26 min
Overall bit rate mode       : Constant
Overall bit rate            : 4 567 kb/s
Writing application         : Lavf57.75.100

Video
ID                          : 1
Format                      : AVC
Format/Info                 : Advanced Video Codec
Format profile              : Main@L4
Format settings, CABAC      : Yes
Format settings, RefFrames  : 1 frame
Format settings, GOP        : M=1, N=25
Codec ID                    : avc1
Codec ID/Info               : Advanced Video Coding
Duration                    : 1 h 26 min
Bit rate mode               : Constant
Bit rate                    : 4 500 kb/s
Width                       : 1 920 pixels
Height                      : 1 080 pixels
Display aspect ratio        : 16:9
Frame rate mode             : Constant
Frame rate                  : 25.000 FPS
Color space                 : YUV
Chroma subsampling          : 4:2:0
Bit depth                   : 8 bits
Scan type                   : Progressive
Bits/(Pixel*Frame)          : 0.087
Stream size                 : 2.72 GiB (99%)

Audio
ID                          : 2
Format                      : AAC
Format/Info                 : Advanced Audio Codec
Format profile              : LC
Codec ID                    : 40
Duration                    : 1 h 26 min
Bit rate mode               : Constant
Bit rate                    : 61.4 kb/s
Channel(s)                  : 2 channels
Channel positions           : Front: L R
Sampling rate               : 48.0 kHz
Frame rate                  : 46.875 FPS (1024 SPF)
Compression mode            : Lossy
Stream size                 : 37.9 MiB (1%)
Default                     : Yes
Alternate group             : 1



Monsoon Shootout (2017) 1080p - WEB-HD - AVC - AAC - DDR Exclusive
Monsoon Shootout (2017) 1080p - WEB-HD - AVC - AAC - DDR Exclusive
Monsoon Shootout (2017) 1080p - WEB-HD - AVC - AAC - DDR Exclusive
Monsoon Shootout (2017) 1080p - WEB-HD - AVC - AAC - DDR Exclusive
Monsoon Shootout (2017) 1080p - WEB-HD - AVC - AAC - DDR Exclusive
Monsoon Shootout (2017) 1080p - WEB-HD - AVC - AAC - DDR Exclusive
Monsoon Shootout (2017) 1080p - WEB-HD - AVC - AAC - DDR Exclusive
Monsoon Shootout (2017) 1080p - WEB-HD - AVC - AAC - DDR Exclusive



SINGLE DIRECT FAST LINKS
https://www.heroupload.com/04ba34a31d049290/Monsoon.Shootout.2018.1080p.UntoucheD.WEB_HD.AVC.AAC-DDR.Exclusive.mp4


http://filefloater.com/7d9/Monsoon.Shootout.2018.1080p.UntoucheD.WEB_HD.AVC.AAC-DDR.Exclusive.mp4

700MB LINKS

https://www.heroupload.com/6fd7591339efe1bc/Monsoon.Shootout.2018.1080p.UntoucheD.WEB_HD.AVC.AAC-DDR.Exclusive.part1.rar
https://www.heroupload.com/236c81939c9620e5/Monsoon.Shootout.2018.1080p.UntoucheD.WEB_HD.AVC.AAC-DDR.Exclusive.part2.rar
https://www.heroupload.com/075143d9368cbc42/Monsoon.Shootout.2018.1080p.UntoucheD.WEB_HD.AVC.AAC-DDR.Exclusive.part3.rar
https://www.heroupload.com/93be221125222b6a/Monsoon.Shootout.2018.1080p.UntoucheD.WEB_HD.AVC.AAC-DDR.Exclusive.part4.rar
https://www.heroupload.com/c3e3da630a38834c/Monsoon.Shootout.2018.1080p.UntoucheD.WEB_HD.AVC.AAC-DDR.Exclusive.part5.rar



http://filefloater.com/7da/Monsoon.Shootout.2018.1080p.UntoucheD.WEB_HD.AVC.AAC-DDR.Exclusive.part1.rar
http://filefloater.com/7db/Monsoon.Shootout.2018.1080p.UntoucheD.WEB_HD.AVC.AAC-DDR.Exclusive.part2.rar
http://filefloater.com/7dc/Monsoon.Shootout.2018.1080p.UntoucheD.WEB_HD.AVC.AAC-DDR.Exclusive.part3.rar
http://filefloater.com/7dd/Monsoon.Shootout.2018.1080p.UntoucheD.WEB_HD.AVC.AAC-DDR.Exclusive.part4.rar
http://filefloater.com/7de/Monsoon.Shootout.2018.1080p.UntoucheD.WEB_HD.AVC.AAC-DDR.Exclusive.part5.rar


Tags: Monsoon

Comments:

Dear visitor, you went to the site as unregistered user
We encourage you to create an account or enter the site under your name

Add comment

Name:*
E-Mail:*
Text:
Bold Italic Underline Strike | Align left Center Align right | Insert smilies Insert link URLInsert protected URL Select color | Add Hidden Text Insert Quote Convert selected text from selection to Cyrillic (Russian) alphabet Insert spoiler
Enter the code: *

Create an account

Advertising