» » Tiger Zinda Hai (2017) (Non Retail) Untouched DVD-Team Jio Exclusive

Tiger Zinda Hai (2017) (Non Retail) Untouched DVD-Team Jio Exclusive

Tiger Zinda Hai (2017) (Non Retail) Untouched DVD-Team Jio Exclusive





File size                   : 4.22 GiB
Duration                    : 2 h 40 min
Overall bit rate mode       : Constant
Overall bit rate            : 3 766 kb/s
Writing library             : encoded by TMPGEnc Video Mastering Works 5 Version. 5.0.6.38

Video
ID                          : 224 (0xE0)
Format                      : MPEG Video
Format version              : Version 2
Format profile              : Main@Main
Format settings             : CustomMatrix / BVOP
Format settings, BVOP       : Yes
Format settings, Matrix     : Custom
Format settings, GOP        : M=3, N=18
Duration                    : 2 h 40 min
Bit rate mode               : Constant
Bit rate                    : 3 330 kb/s
Width                       : 720 pixels
Height                      : 480 pixels
Display aspect ratio        : 16:9
Frame rate                  : 29.970 (30000/1001) FPS
Standard                    : NTSC
Color space                 : YUV
Chroma subsampling          : 4:2:0
Bit depth                   : 8 bits
Scan type                   : Progressive
Compression mode            : Lossy
Bits/(Pixel*Frame)          : 0.322
Time code of first frame    : 00:00:00:00
Time code source            : Group of pictures header
GOP, Open/Closed            : Open
GOP, Open/Closed of first f : Closed
Stream size                 : 3.70 GiB (88%)

Color primaries             : BT.601 NTSC
Transfer characteristics    : BT.601
Matrix coefficients         : BT.601

Audio
ID                          : 189 (0xBD)-128 (0x80)
Format                      : AC-3
Format/Info                 : Audio Coding 3
Muxing mode                 : DVD-Video
Duration                    : 2 h 40 min
Bit rate mode               : Constant
Bit rate                    : 384 kb/s
Channel(s)                  : 6 channels
Channel positions           : Front: L C R, Side: L R, LFE
Sampling rate               : 48.0 kHz
Frame rate                  : 31.250 FPS (1536 SPF)
Bit depth                   : 16 bits
Compression mode            : Lossy
Stream size                 : 440 MiB (10%)
Service kind                : Complete Main


Tiger Zinda Hai (2017) (Non Retail) Untouched DVD-Team Jio ExclusiveTiger Zinda Hai (2017) (Non Retail) Untouched DVD-Team Jio ExclusiveTiger Zinda Hai (2017) (Non Retail) Untouched DVD-Team Jio ExclusiveTiger Zinda Hai (2017) (Non Retail) Untouched DVD-Team Jio ExclusiveTiger Zinda Hai (2017) (Non Retail) Untouched DVD-Team Jio ExclusiveTiger Zinda Hai (2017) (Non Retail) Untouched DVD-Team Jio ExclusiveTiger Zinda Hai (2017) (Non Retail) Untouched DVD-Team Jio Exclusive
Tiger Zinda Hai (2017) (Non Retail) Untouched DVD-Team Jio ExclusiveTiger Zinda Hai (2017) (Non Retail) Untouched DVD-Team Jio ExclusiveTiger Zinda Hai (2017) (Non Retail) Untouched DVD-Team Jio ExclusiveTiger Zinda Hai (2017) (Non Retail) Untouched DVD-Team Jio Exclusive


SINGLE DIRECT FAST LINKS

https://www.heroupload.com/99f36b17238f5e1e/Tiger.Zinda.Hai.2017.Untouched._NONRETAIL.DVD-Team.Jio.mpg


http://filefloater.com/4it/Tiger.Zinda.Hai.2017.Untouched._NONRETAIL.DVD-Team.Jio.mpg

1GB LINKS

https://www.heroupload.com/a7c42b830a00f26b/Tiger.Zinda.Hai.2017.Untouched._NONRETAIL.DVD-Team.Jio.part1.rar
https://www.heroupload.com/0c89c33748684b1d/Tiger.Zinda.Hai.2017.Untouched._NONRETAIL.DVD-Team.Jio.part2.rar
https://www.heroupload.com/2c97129d0701e463/Tiger.Zinda.Hai.2017.Untouched._NONRETAIL.DVD-Team.Jio.part3.rar
https://www.heroupload.com/74cb3c63e02c74f8/Tiger.Zinda.Hai.2017.Untouched._NONRETAIL.DVD-Team.Jio.part4.rar
https://www.heroupload.com/6ced823a35ae5ccd/Tiger.Zinda.Hai.2017.Untouched._NONRETAIL.DVD-Team.Jio.part5.rar



http://filefloater.com/4iu/Tiger.Zinda.Hai.2017.Untouched._NONRETAIL.DVD-Team.Jio.part1.rar
http://filefloater.com/4iv/Tiger.Zinda.Hai.2017.Untouched._NONRETAIL.DVD-Team.Jio.part2.rar
http://filefloater.com/4iw/Tiger.Zinda.Hai.2017.Untouched._NONRETAIL.DVD-Team.Jio.part3.rar
http://filefloater.com/4ix/Tiger.Zinda.Hai.2017.Untouched._NONRETAIL.DVD-Team.Jio.part4.rar
http://filefloater.com/4iy/Tiger.Zinda.Hai.2017.Untouched._NONRETAIL.DVD-Team.Jio.part5.rar


Tags: Tiger

Comments:

Dear visitor, you went to the site as unregistered user
We encourage you to create an account or enter the site under your name

TimothyBoila

27 January 2018 22:15 User Offline

Ну что за люди
-----


аренда мини офиса
-----
Какая поговорка, древняя


http://www.praedium.ru/catalog/prodazha-ofisov/ офис в аренду
-----
сайт о банке втб говорит об обратном


http://vtb-lichniy-kabinet.ru/
-----
Как использовать пиратское ПО бесплатно


скачать crack

Jamesket

31 January 2018 00:45 User Offline

Вот это скорость, хорошо делаете свою работу

------


расценки услуг садовников

------

Весь текст шикарен


ключ

Arnoldfew

18 February 2018 23:46

Хитрости то какие интересные

-------

посмотри

Add comment

Name:*
E-Mail:*
Text:
Bold Italic Underline Strike | Align left Center Align right | Insert smilies Insert link URLInsert protected URL Select color | Add Hidden Text Insert Quote Convert selected text from selection to Cyrillic (Russian) alphabet Insert spoiler
Enter the code: *

Create an account

Advertising