» » Chithiram Pesuthadi 2 (2019) Tamil - 1080p - WEB-DL - AVC - AAC - ESub-BWT

Chithiram Pesuthadi 2 (2019) Tamil - 1080p - WEB-DL - AVC - AAC - ESub-BWT

Chithiram Pesuthadi 2 (2019) Tamil - 1080p - WEB-DL - AVC - AAC - ESub-BWT






Format                                   : Matroska
Format version                           : Version 4
File size                                : 3.79 GiB
Duration                                 : 2 h 9 min
Overall bit rate                         : 4 197 kb/s
Encoded date                             : UTC 2019-08-09 11:50:57
Writing application                      : mkvmerge v35.0.0 ('All The Love In The World') 64-bit
Writing library                          : libebml v1.3.9 + libmatroska v1.5.2

Video
ID                                       : 1
Format                                   : AVC
Format/Info                              : Advanced Video Codec
Format profile                           : [email protected]
Format settings                          : CABAC / 4 Ref Frames
Format settings, CABAC                   : Yes
Format settings, Reference frames        : 4 frames
Codec ID                                 : V_MPEG4/ISO/AVC
Duration                                 : 2 h 9 min
Bit rate                                 : 4 000 kb/s
Width                                    : 1 920 pixels
Height                                   : 816 pixels
Display aspect ratio                     : 2.35:1
Frame rate mode                          : Constant
Frame rate                               : 25.000 FPS
Color space                              : YUV
Chroma subsampling                       : 4:2:0
Bit depth                                : 8 bits
Scan type                                : Progressive
Bits/(Pixel*Frame)                       : 0.102
Stream size                              : 3.61 GiB (95%)
Writing library                          : x264 core 155 r2901 7d0ff22
Encoding settings                        : cabac=1 / ref=1 / deblock=1:0:0 / analyse=0x3:0x113 / me=hex / subme=2 / psy=1 / psy_rd=1.00:0.00 / mixed_ref=0 / me_range=16 / chroma_me=1 / trellis=0 / 8x8dct=1 / cqm=0 / deadzone=21,11 / fast_pskip=1 / chroma_qp_offset=0 / threads=25 / lookahead_threads=6 / sliced_threads=0 / nr=0 / decimate=1 / interlaced=0 / bluray_compat=0 / constrained_intra=0 / bframes=3 / b_pyramid=2 / b_adapt=1 / b_bias=0 / direct=1 / weightb=1 / open_gop=0 / weightp=1 / keyint=250 / keyint_min=25 / scenecut=40 / intra_refresh=0 / rc_lookahead=10 / rc=abr / mbtree=1 / bitrate=4000 / ratetol=1.0 / qcomp=0.60 / qpmin=0 / qpmax=69 / qpstep=4 / vbv_maxrate=62500 / vbv_bufsize=78125 / nal_hrd=none / filler=0 / ip_ratio=1.40 / aq=1:1.00
Language                                 : Tamil
Default                                  : Yes
Forced                                   : No
Color range                              : Limited
Color primaries                          : BT.709
Transfer characteristics                 : BT.709
Matrix coefficients                      : BT.709

Audio
ID                                       : 2
Format                                   : AAC LC
Format/Info                              : Advanced Audio Codec Low Complexity
Codec ID                                 : A_AAC-2
Duration                                 : 2 h 9 min
Bit rate                                 : 196 kb/s
Channel(s)                               : 2 channels
Channel layout                           : L R
Sampling rate                            : 48.0 kHz
Frame rate                               : 46.875 FPS (1024 SPF)
Compression mode                         : Lossy
Stream size                              : 181 MiB (5%)
Language                                 : Tamil
Default                                  : Yes
Forced                                   : No



Chithiram Pesuthadi 2 (2019) Tamil - 1080p - WEB-DL - AVC - AAC - ESub-BWT
Chithiram Pesuthadi 2 (2019) Tamil - 1080p - WEB-DL - AVC - AAC - ESub-BWT
Chithiram Pesuthadi 2 (2019) Tamil - 1080p - WEB-DL - AVC - AAC - ESub-BWT
Chithiram Pesuthadi 2 (2019) Tamil - 1080p - WEB-DL - AVC - AAC - ESub-BWT
Chithiram Pesuthadi 2 (2019) Tamil - 1080p - WEB-DL - AVC - AAC - ESub-BWT
Chithiram Pesuthadi 2 (2019) Tamil - 1080p - WEB-DL - AVC - AAC - ESub-BWT
Chithiram Pesuthadi 2 (2019) Tamil - 1080p - WEB-DL - AVC - AAC - ESub-BWT
Chithiram Pesuthadi 2 (2019) Tamil - 1080p - WEB-DL - AVC - AAC - ESub-BWT

SINGLE DIRECT FAST LINKS

https://www.heroupload.com/2fc13ff9ceccef50/Chithiram.Pesuthadi.2.2019.Tamil.WEB-HD.1080p.AVC.UNTOUCHED.AAC.ESub-BWT.mkv


1GB LINKS


https://www.heroupload.com/72f20c85a24c576d/Chithiram.Pesuthadi.2.2019.Tamil.WEB-HD.1080p.AVC.UNTOUCHED.AAC.ESub-BWT.part1.rar
https://www.heroupload.com/1c424b67f3cf2079/Chithiram.Pesuthadi.2.2019.Tamil.WEB-HD.1080p.AVC.UNTOUCHED.AAC.ESub-BWT.part2.rar
https://www.heroupload.com/427639dc8c3d663a/Chithiram.Pesuthadi.2.2019.Tamil.WEB-HD.1080p.AVC.UNTOUCHED.AAC.ESub-BWT.part3.rar
https://www.heroupload.com/a6a275f975a285ba/Chithiram.Pesuthadi.2.2019.Tamil.WEB-HD.1080p.AVC.UNTOUCHED.AAC.ESub-BWT.part4.rar
https://www.heroupload.com/ac031ed1b78e32d4/Chithiram.Pesuthadi.2.2019.Tamil.WEB-HD.1080p.AVC.UNTOUCHED.AAC.ESub-BWT.srt




Buy Premium From My Links & Support Me

Tags: Chithiram

Comments:

Dear visitor, you went to the site as unregistered user
We encourage you to create an account or enter the site under your name

Add comment

Name:*
E-Mail:*
Text:
Bold Italic Underline Strike | Align left Center Align right | Insert smilies Insert link URLInsert protected URL Select color | Add Hidden Text Insert Quote Convert selected text from selection to Cyrillic (Russian) alphabet Insert spoiler
Enter the code: *

Create an account

Advertising