» » Drishyam (2013) UNCUT 720p BluRay x264 Esubs [Dual Audio][Hindi+Malayalam] - DM

Drishyam (2013) UNCUT 720p BluRay x264 Esubs [Dual Audio][Hindi+Malayalam] - DM

Drishyam (2013) UNCUT 720p BluRay x264 Esubs [Dual Audio][Hindi+Malayalam] - DM






General
Format : Matroska
Format version : Version 4
File size : 1.32 GiB
Duration : 2 h 44 min
Overall bit rate : 1 152 kb/s

Video
ID : 1
Format : AVC
Format/Info : Advanced Video Codec
Format profile : [email protected]
Format settings : CABAC / 4 Ref Frames
Format settings, CABAC : Yes
Format settings, ReFrames : 4 frames
Codec ID : V_MPEG4/ISO/AVC
Duration : 2 h 44 min
Bit rate : 803 kb/s
Width : 1 280 pixels
Height : 544 pixels
Display aspect ratio : 2.35:1
Frame rate mode : Constant
Frame rate : 24.000 FPS
Color space : YUV
Chroma subsampling : 4:2:0
Bit depth : 8 bits
Scan type : Progressive
Bits/(Pixel*Frame) : 0.048
Stream size : 937 MiB (69%)
Default : Yes
Forced : No

Audio #1
ID : 2
Format : AC-3
Format/Info : Audio Coding 3
Commercial name : Dolby Digital
Codec ID : A_AC3
Duration : 2 h 44 min
Bit rate mode : Constant
Bit rate : 192 kb/s
Channel(s) : 2 channels
Channel layout : L R
Sampling rate : 48.0 kHz
Frame rate : 31.250 FPS (1536 SPF)
Bit depth : 16 bits
Compression mode : Lossy
Stream size : 226 MiB (17%)
Title : DesireMoVies.World
Language : Hindi
Service kind : Complete Main
Default : Yes
Forced : No

Audio #2
ID : 3
Format : AC-3
Format/Info : Audio Coding 3
Commercial name : Dolby Digital
Codec ID : A_AC3
Duration : 2 h 44 min
Bit rate mode : Constant
Bit rate : 160 kb/s
Channel(s) : 6 channels
Channel layout : L R C LFE Ls Rs
Sampling rate : 48.0 kHz
Frame rate : 31.250 FPS (1536 SPF)
Bit depth : 16 bits
Compression mode : Lossy
Stream size : 188 MiB (14%)
Title : DesireMoVies.World
Language : Malayalam
Service kind : Complete Main
Default : No
Forced : No

Text #1
ID : 4
Format : UTF-8
Codec ID : S_TEXT/UTF8
Codec ID/Info : UTF-8 Plain Text
Duration : 2 h 42 min
Bit rate : 72 b/s
Count of elements : 2423
Stream size : 86.0 KiB (0%)
Title : DesireMoVies.World
Language : English
Default : Yes
Forced : Yes



Drishyam (2013) UNCUT 720p BluRay x264 Esubs [Dual Audio][Hindi+Malayalam] - DM
Drishyam (2013) UNCUT 720p BluRay x264 Esubs [Dual Audio][Hindi+Malayalam] - DM
Drishyam (2013) UNCUT 720p BluRay x264 Esubs [Dual Audio][Hindi+Malayalam] - DM
Drishyam (2013) UNCUT 720p BluRay x264 Esubs [Dual Audio][Hindi+Malayalam] - DM
Drishyam (2013) UNCUT 720p BluRay x264 Esubs [Dual Audio][Hindi+Malayalam] - DM
Drishyam (2013) UNCUT 720p BluRay x264 Esubs [Dual Audio][Hindi+Malayalam] - DM
Drishyam (2013) UNCUT 720p BluRay x264 Esubs [Dual Audio][Hindi+Malayalam] - DM
Drishyam (2013) UNCUT 720p BluRay x264 Esubs [Dual Audio][Hindi+Malayalam] - DM
Drishyam (2013) UNCUT 720p BluRay x264 Esubs [Dual Audio][Hindi+Malayalam] - DM
Drishyam (2013) UNCUT 720p BluRay x264 Esubs [Dual Audio][Hindi+Malayalam] - DM
Drishyam (2013) UNCUT 720p BluRay x264 Esubs [Dual Audio][Hindi+Malayalam] - DMDrishyam (2013) UNCUT 720p BluRay x264 Esubs [Dual Audio][Hindi+Malayalam] - DM


SINGLE DIRECT FAST LINKS



https://www.heroupload.com/700a8e863400f2f3/Drishyam.2013.UNCUT.720p.BluRay.x264.Esubs.Dual.Audio-DM.mkv



Buy Premium From My Links & Support Me

Tags: Drishyam

Comments:

Dear visitor, you went to the site as unregistered user
We encourage you to create an account or enter the site under your name

Add comment

Name:*
E-Mail:*
Text:
Bold Italic Underline Strike | Align left Center Align right | Insert smilies Insert link URLInsert protected URL Select color | Add Hidden Text Insert Quote Convert selected text from selection to Cyrillic (Russian) alphabet Insert spoiler
Enter the code: *

Create an account

Advertising