» » Super Khiladi 4 (Nenu Local) (2018) Hindi - 720p - WEB-HD - AVC - AAC-GM Exclusive

Super Khiladi 4 (Nenu Local) (2018) Hindi - 720p - WEB-HD - AVC - AAC-GM Exclusive

Super Khiladi 4 (Nenu Local) (2018) Hindi - 720p - WEB-HD - AVC - AAC-GM Exclusive





General
Format                      : Matroska
Format version              : Version 4 / Version 2
File size                   : 772 MiB
Duration                    : 1 h 53 min
Overall bit rate            : 952 kb/s
Encoded date                : UTC 2018-01-22 19:34:41
Writing application         : mkvmerge v20.0.0 ('I Am The Sun') 64-bit
Writing library             : libebml v1.3.5 + libmatroska v1.4.8
FileExtension_Invalid       : mkv mk3d mka mks

Video
ID                          : 1
Format                      : AVC
Format/Info                 : Advanced Video Codec
Format profile              : Main@L3.1
Format settings, CABAC      : Yes
Format settings, RefFrames  : 3 frames
Codec ID                    : V_MPEG4/ISO/AVC
Duration                    : 1 h 53 min
Bit rate                    : 824 kb/s
Width                       : 1 280 pixels
Height                      : 720 pixels
Display aspect ratio        : 16:9
Frame rate mode             : Constant
Frame rate                  : 25.000 FPS
Color space                 : YUV
Chroma subsampling          : 4:2:0
Bit depth                   : 8 bits
Scan type                   : Progressive
Bits/(Pixel*Frame)          : 0.036
Stream size                 : 668 MiB (87%)
Default                     : Yes
Forced                      : No
Color range                 : Limited
Color primaries             : BT.709
Transfer characteristics    : BT.709
Matrix coefficients         : BT.709

Audio
ID                          : 2
Format                      : AAC
Format/Info                 : Advanced Audio Codec
Format profile              : LC
Codec ID                    : A_AAC
Duration                    : 1 h 53 min
Bit rate                    : 126 kb/s
Channel(s)                  : 2 channels
Channel positions           : Front: L R
Sampling rate               : 44.1 kHz
Frame rate                  : 43.066 FPS (1024 SPF)
Compression mode            : Lossy
Stream size                 : 102 MiB (13%)
Default                     : Yes
Forced                      : No

Text
ID                          : 3
Format                      : UTF-8
Codec ID                    : S_TEXT/UTF8
Codec ID/Info               : UTF-8 Plain Text
Duration                    : 1 h 52 min
Bit rate                    : 89 b/s
Count of elements           : 1938
Stream size                 : 74.0 KiB (0%)
Default                     : Yes
Forced                      : No




Super Khiladi 4 (Nenu Local) (2018) Hindi - 720p - WEB-HD - AVC - AAC-GM ExclusiveSuper Khiladi 4 (Nenu Local) (2018) Hindi - 720p - WEB-HD - AVC - AAC-GM ExclusiveSuper Khiladi 4 (Nenu Local) (2018) Hindi - 720p - WEB-HD - AVC - AAC-GM ExclusiveSuper Khiladi 4 (Nenu Local) (2018) Hindi - 720p - WEB-HD - AVC - AAC-GM ExclusiveSuper Khiladi 4 (Nenu Local) (2018) Hindi - 720p - WEB-HD - AVC - AAC-GM Exclusive


SINGLE DIRECT FAST LINKS



https://www.heroupload.com/176001d53eca36af/Nenu.Local.2017.Hindi.720p.HD.AVC.MP4.ESubs-GM.mp4



http://filefloater.com/4hk/Nenu.Local.2017.Hindi.720p.HD.AVC.MP4.ESubs-GM.mp4



Tags: Super

Comments:

Dear visitor, you went to the site as unregistered user
We encourage you to create an account or enter the site under your name

Add comment

Name:*
E-Mail:*
Text:
Bold Italic Underline Strike | Align left Center Align right | Insert smilies Insert link URLInsert protected URL Select color | Add Hidden Text Insert Quote Convert selected text from selection to Cyrillic (Russian) alphabet Insert spoiler
Enter the code: *

Create an account

Advertising