» » Chekka Chivantha Vaanam (2018) 720p UNCUT HDRip x264 ESubs [Dual Audio][Hindi+Tamil]

Chekka Chivantha Vaanam (2018) 720p UNCUT HDRip x264 ESubs [Dual Audio][Hindi+Tamil]

Chekka Chivantha Vaanam (2018) 720p UNCUT HDRip x264 ESubs [Dual Audio][Hindi+Tamil]





Format                      : Matroska
Format version              : Version 4
File size                   : 1.41 GiB
Duration                    : 2 h 16 min
Overall bit rate            : 1 480 kb/s
Encoded date                : UTC 2019-06-18 23:03:25
Writing application         : mkvmerge v33.1.0 ('Primrose') 32-bit
Writing library             : libebml v1.3.7 + libmatroska v1.5.0
Attachments                 : c.png

Video
ID                          : 1
Format                      : AVC
Format/Info                 : Advanced Video Codec
Format profile              : [email protected]
Format settings             : CABAC / 5 Ref Frames
Format settings, CABAC      : Yes
Format settings, Reference  : 5 frames
Codec ID                    : V_MPEG4/ISO/AVC
Duration                    : 2 h 16 min
Bit rate                    : 1 152 kb/s
Width                       : 1 280 pixels
Height                      : 544 pixels
Display aspect ratio        : 2.35:1
Frame rate mode             : Constant
Frame rate                  : 60.000 FPS
Color space                 : YUV
Chroma subsampling          : 4:2:0
Bit depth                   : 8 bits
Scan type                   : Progressive
Bits/(Pixel*Frame)          : 0.028
Stream size                 : 1.10 GiB (78%)
Writing library             : x264 core 152 r2854 e9a5903
Encoding settings           : cabac=1 / ref=5 / deblock=1:0:0 / analyse=0x3:0x113 / me=hex / subme=7 / psy=1 / psy_rd=1.00:0.00 / mixed_ref=1 / me_range=16 / chroma_me=1 / trellis=1 / 8x8dct=1 / cqm=0 / deadzone=21,11 / fast_pskip=1 / chroma_qp_offset=-2 / threads=8 / lookahead_threads=8 / sliced_threads=1 / slices=8 / nr=0 / decimate=1 / interlaced=0 / bluray_compat=0 / constrained_intra=0 / bframes=0 / weightp=2 / keyint=250 / keyint_min=25 / scenecut=40 / intra_refresh=0 / rc=abr / mbtree=0 / bitrate=1152 / ratetol=1.0 / qcomp=0.60 / qpmin=0 / qpmax=69 / qpstep=4 / ip_ratio=1.40 / aq=1:1.00
Language                    : Tamil
Default                     : Yes
Forced                      : No

Audio #1
ID                          : 2
Format                      : AC-3
Format/Info                 : Audio Coding 3
Commercial name             : Dolby Digital
Codec ID                    : A_AC3
Duration                    : 2 h 16 min
Bit rate mode               : Constant
Bit rate                    : 192 kb/s
Channel(s)                  : 2 channels
Channel layout              : L R
Sampling rate               : 48.0 kHz
Frame rate                  : 31.250 FPS (1536 SPF)
Bit depth                   : 16 bits
Compression mode            : Lossy
Stream size                 : 188 MiB (13%)
Language                    : Hindi
Service kind                : Complete Main
Default                     : Yes
Forced                      : Yes

Audio #2
ID                          : 3
Format                      : AAC LC
Format/Info                 : Advanced Audio Codec Low Complexity
Codec ID                    : A_AAC-2
Duration                    : 2 h 16 min
Bit rate                    : 125 kb/s
Channel(s)                  : 2 channels
Channel layout              : L R
Sampling rate               : 48.0 kHz
Frame rate                  : 46.875 FPS (1024 SPF)
Compression mode            : Lossy
Stream size                 : 122 MiB (8%)
Language                    : Tamil
Default                     : No
Forced                      : No

Text
ID                          : 4
Format                      : UTF-8
Codec ID                    : S_TEXT/UTF8
Codec ID/Info               : UTF-8 Plain Text
Duration                    : 2 h 14 min
Bit rate                    : 57 b/s
Count of elements           : 1576
Stream size                 : 56.4 KiB (0%)
Language                    : English
Default                     : Yes
Forced                      : No





Chekka Chivantha Vaanam (2018) 720p UNCUT HDRip x264 ESubs [Dual Audio][Hindi+Tamil]
Chekka Chivantha Vaanam (2018) 720p UNCUT HDRip x264 ESubs [Dual Audio][Hindi+Tamil]
Chekka Chivantha Vaanam (2018) 720p UNCUT HDRip x264 ESubs [Dual Audio][Hindi+Tamil]
Chekka Chivantha Vaanam (2018) 720p UNCUT HDRip x264 ESubs [Dual Audio][Hindi+Tamil]
Chekka Chivantha Vaanam (2018) 720p UNCUT HDRip x264 ESubs [Dual Audio][Hindi+Tamil]
Chekka Chivantha Vaanam (2018) 720p UNCUT HDRip x264 ESubs [Dual Audio][Hindi+Tamil]
Chekka Chivantha Vaanam (2018) 720p UNCUT HDRip x264 ESubs [Dual Audio][Hindi+Tamil]
Chekka Chivantha Vaanam (2018) 720p UNCUT HDRip x264 ESubs [Dual Audio][Hindi+Tamil]
Chekka Chivantha Vaanam (2018) 720p UNCUT HDRip x264 ESubs [Dual Audio][Hindi+Tamil]
Chekka Chivantha Vaanam (2018) 720p UNCUT HDRip x264 ESubs [Dual Audio][Hindi+Tamil]
Chekka Chivantha Vaanam (2018) 720p UNCUT HDRip x264 ESubs [Dual Audio][Hindi+Tamil]
Chekka Chivantha Vaanam (2018) 720p UNCUT HDRip x264 ESubs [Dual Audio][Hindi+Tamil]
Chekka Chivantha Vaanam (2018) 720p UNCUT HDRip x264 ESubs [Dual Audio][Hindi+Tamil]
Chekka Chivantha Vaanam (2018) 720p UNCUT HDRip x264 ESubs [Dual Audio][Hindi+Tamil]
Chekka Chivantha Vaanam (2018) 720p UNCUT HDRip x264 ESubs [Dual Audio][Hindi+Tamil]

SINGLE DIRECT FAST LINKS


https://www.heroupload.com/0fa7b33dc575f3e9/Chekka.Chivantha.Vaanam.2018.720p.UNCUT.HDRip.x264.ESubs.Hindi.DD2.0+Tamil.DD2.0-BHD.mkv






Buy Premium From My Links & Support Me

Tags: Chekka

Comments:

Dear visitor, you went to the site as unregistered user
We encourage you to create an account or enter the site under your name

michael kors outlet

30 June 2019 07:12

No matter what type of Michael Kors Bags Outlet each individual got, they all had one thing in common. We all know that getting something on sale is like winning a mini lottery, but to find a name brand handbag like Michael Kors Black Friday Sale for instance, discounted is like a slice of heaven on earth. I have personally attacked my husband with hugs and kisses when finding Official Coach Outlet Online at discounted prices.

Michael Kors Factory Outlet stores can be found in malls all over. MK Outlet and other Coach merchandise can also be found in some boutiques. Inspired by the same material baseball gloves are made from, these Coach Bags On Sale Online are versatile and stylish. Since it's conception, the Michael Kors Handbags Outlet has been produced into a variety of designs, colors, shapes, and styles that have won top pick of millions of women the world over.

New Michael Kors Bags are the most sought after handbag. Since Coach Outlet Online is one of the most recognized name brands in the world of fashion, you will find A-list celebrities down to small girls wearing them.

tags:Coach Outlet|Coach Bags Factory Outlet|Coach Purses Outlet

Add comment

Name:*
E-Mail:*
Text:
Bold Italic Underline Strike | Align left Center Align right | Insert smilies Insert link URLInsert protected URL Select color | Add Hidden Text Insert Quote Convert selected text from selection to Cyrillic (Russian) alphabet Insert spoiler
Enter the code: *

Create an account

Advertising