» » Jersey (2019) Telugu - 1080p - WEB-DL - AVC - AAC - Esubs-BWT Exclusive

Jersey (2019) Telugu - 1080p - WEB-DL - AVC - AAC - Esubs-BWT Exclusive

Jersey (2019) Telugu - 1080p - WEB-DL - AVC - AAC - Esubs-BWT Exclusive




Format                      : MPEG-4
Format profile              : Base Media
Codec ID                    : isom (isom/iso2/avc1/mp41)
File size                   : 2.41 GiB
Duration                    : 2 h 30 min
Overall bit rate mode       : Variable
Overall bit rate            : 2 286 kb/s
Writing application         : Lavf58.23.101

Video
ID                          : 1
Format                      : AVC
Format/Info                 : Advanced Video Codec
Format profile              : [email protected]
Format settings             : CABAC / 4 Ref Frames
Format settings, CABAC      : Yes
Format settings, Reference  : 4 frames
Codec ID                    : avc1
Codec ID/Info               : Advanced Video Coding
Duration                    : 2 h 30 min
Bit rate                    : 2 200 kb/s
Width                       : 1 920 pixels
Height                      : 1 080 pixels
Display aspect ratio        : 16:9
Frame rate mode             : Constant
Frame rate                  : 25.000 FPS
Color space                 : YUV
Chroma subsampling          : 4:2:0
Bit depth                   : 8 bits
Scan type                   : Progressive
Bits/(Pixel*Frame)          : 0.042
Stream size                 : 2.30 GiB (95%)
Writing library             : x264 core 152 r2854 e9a5903
Encoding settings           : cabac=1 / ref=3 / deblock=1:0:0 / analyse=0x3:0x113 / me=hex / subme=7 / psy=1 / psy_rd=1.00:0.00 / mixed_ref=1 / me_range=16 / chroma_me=1 / trellis=1 / 8x8dct=1 / cqm=0 / deadzone=21,11 / fast_pskip=1 / chroma_qp_offset=-2 / threads=34 / lookahead_threads=5 / sliced_threads=0 / nr=0 / decimate=1 / interlaced=0 / bluray_compat=0 / constrained_intra=0 / bframes=3 / b_pyramid=2 / b_adapt=1 / b_bias=0 / direct=1 / weightb=1 / open_gop=0 / weightp=2 / keyint=50 / keyint_min=26 / scenecut=0 / intra_refresh=0 / rc_lookahead=40 / rc=abr / mbtree=1 / bitrate=2200 / ratetol=1.0 / qcomp=0.60 / qpmin=0 / qpmax=69 / qpstep=4 / vbv_maxrate=2860 / vbv_bufsize=3300 / nal_hrd=none / filler=0 / ip_ratio=1.40 / aq=1:1.00
Codec configuration box     : avcC

Audio
ID                          : 2
Format                      : AAC LC
Format/Info                 : Advanced Audio Codec Low Complexity
Codec ID                    : mp4a-40-2
Duration                    : 2 h 30 min
Bit rate mode               : Variable
Bit rate                    : 96.0 kb/s
Maximum bit rate            : 99.0 kb/s
Channel(s)                  : 2 channels
Channel layout              : L R
Sampling rate               : 48.0 kHz
Frame rate                  : 46.875 FPS (1024 SPF)
Compression mode            : Lossy
Stream size                 : 106 MiB (4%)
Default                     : Yes
Alternate group             : 1




Jersey (2019) Telugu - 1080p - WEB-DL - AVC - AAC - Esubs-BWT Exclusive
Jersey (2019) Telugu - 1080p - WEB-DL - AVC - AAC - Esubs-BWT Exclusive
Jersey (2019) Telugu - 1080p - WEB-DL - AVC - AAC - Esubs-BWT Exclusive
Jersey (2019) Telugu - 1080p - WEB-DL - AVC - AAC - Esubs-BWT Exclusive
Jersey (2019) Telugu - 1080p - WEB-DL - AVC - AAC - Esubs-BWT Exclusive
Jersey (2019) Telugu - 1080p - WEB-DL - AVC - AAC - Esubs-BWT Exclusive
Jersey (2019) Telugu - 1080p - WEB-DL - AVC - AAC - Esubs-BWT Exclusive
Jersey (2019) Telugu - 1080p - WEB-DL - AVC - AAC - Esubs-BWT Exclusive
Jersey (2019) Telugu - 1080p - WEB-DL - AVC - AAC - Esubs-BWT Exclusive
Jersey (2019) Telugu - 1080p - WEB-DL - AVC - AAC - Esubs-BWT Exclusive


SINGLE DIRECT FAST LINKS

https://www.heroupload.com/98eddba250748fe3/JERSEY.2019.Telugu.WEB-DL.1080p.AVC.UNTOUCHED.AAC.ESub-BWT.mp4


700MB LINKS


https://www.heroupload.com/1ffe7743f538e7f3/JERSEY.2019.Telugu.WEB-DL.1080p.AVC.UNTOUCHED.AAC.ESub-BWT.part1.rar
https://www.heroupload.com/0b9eb45e52a1e365/JERSEY.2019.Telugu.WEB-DL.1080p.AVC.UNTOUCHED.AAC.ESub-BWT.part2.rar
https://www.heroupload.com/6174bc77d00b7ea3/JERSEY.2019.Telugu.WEB-DL.1080p.AVC.UNTOUCHED.AAC.ESub-BWT.part3.rar
https://www.heroupload.com/992665fd0fdf641a/JERSEY.2019.Telugu.WEB-DL.1080p.AVC.UNTOUCHED.AAC.ESub-BWT.part4.rar
https://www.heroupload.com/4540929b7b755951/JERSEY.2019.Telugu.WEB-DL.1080p.AVC.UNTOUCHED.AAC.ESub-BWT.srt


Buy Premium From My Links & Support Me

Tags: Jersey

Comments:

Dear visitor, you went to the site as unregistered user
We encourage you to create an account or enter the site under your name

Add comment

Name:*
E-Mail:*
Text:
Bold Italic Underline Strike | Align left Center Align right | Insert smilies Insert link URLInsert protected URL Select color | Add Hidden Text Insert Quote Convert selected text from selection to Cyrillic (Russian) alphabet Insert spoiler
Enter the code: *

Create an account

Advertising