» » Junglee (2019) 1080p - WEB-DL - AVC - AAC 2.0-BollywoodA2z

Junglee (2019) 1080p - WEB-DL - AVC - AAC 2.0-BollywoodA2z

Junglee (2019) 1080p - WEB-DL - AVC - AAC 2.0-BollywoodA2z





Format                      : Matroska
Format version              : Version 4
File size                   : 1.49 GiB
Duration                    : 1 h 54 min
Overall bit rate            : 1 856 kb/s
Encoded date                : UTC 2019-06-03 21:51:41
Writing application         : mkvmerge v33.1.0 ('Primrose') 32-bit
Writing library             : libebml v1.3.7 + libmatroska v1.5.0

Video
ID                          : 3
Format                      : AVC
Format/Info                 : Advanced Video Codec
Format profile              : [email protected]
Format settings             : CABAC / 4 Ref Frames
Format settings, CABAC      : Yes
Format settings, Reference  : 4 frames
Format settings, GOP        : M=4, N=48
Codec ID                    : V_MPEG4/ISO/AVC
Duration                    : 1 h 54 min
Bit rate                    : 1 800 kb/s
Width                       : 1 920 pixels
Height                      : 1 080 pixels
Display aspect ratio        : 16:9
Frame rate mode             : Constant
Frame rate                  : 24.000 FPS
Color space                 : YUV
Chroma subsampling          : 4:2:0
Bit depth                   : 8 bits
Scan type                   : Progressive
Bits/(Pixel*Frame)          : 0.036
Stream size                 : 1.44 GiB (96%)
Writing library             : x264 core 155 r2917 0a84d98
Encoding settings           : cabac=1 / ref=4 / deblock=1:-1:-1 / analyse=0x3:0x113 / me=hex / subme=8 / psy=1 / psy_rd=1.00:0.15 / mixed_ref=1 / me_range=16 / chroma_me=1 / trellis=2 / 8x8dct=1 / cqm=0 / deadzone=21,11 / fast_pskip=1 / chroma_qp_offset=-3 / threads=12 / lookahead_threads=2 / sliced_threads=0 / nr=0 / decimate=1 / interlaced=0 / bluray_compat=0 / constrained_intra=0 / bframes=3 / b_pyramid=2 / b_adapt=2 / b_bias=0 / direct=3 / weightb=1 / open_gop=0 / weightp=2 / keyint=48 / keyint_min=25 / scenecut=0 / intra_refresh=0 / rc_lookahead=48 / rc=2pass / mbtree=1 / bitrate=1800 / ratetol=1.0 / qcomp=0.60 / qpmin=0 / qpmax=69 / qpstep=4 / cplxblur=20.0 / qblur=0.5 / vbv_maxrate=2520 / vbv_bufsize=3240 / nal_hrd=none / filler=0 / ip_ratio=1.40 / aq=1:1.00
Default                     : Yes
Forced                      : No

Audio
ID                          : 2
Format                      : AAC LC
Format/Info                 : Advanced Audio Codec Low Complexity
Codec ID                    : A_AAC-2
Duration                    : 1 h 54 min
Bit rate                    : 63.9 kb/s
Channel(s)                  : 2 channels
Channel layout              : L R
Sampling rate               : 48.0 kHz
Frame rate                  : 46.875 FPS (1024 SPF)
Compression mode            : Lossy
Delay relative to video     : -83 ms
Stream size                 : 52.6 MiB (3%)
Default                     : Yes
Forced                      : No

Text
ID                          : 1
Format                      : UTF-8
Codec ID                    : S_TEXT/UTF8
Codec ID/Info               : UTF-8 Plain Text
Duration                    : 1 h 50 min
Bit rate                    : 36 b/s
Count of elements           : 1168
Stream size                 : 29.3 KiB (0%)
Default                     : Yes
Forced                      : No



Junglee (2019) 1080p - WEB-DL - AVC - AAC 2.0-BollywoodA2z
Junglee (2019) 1080p - WEB-DL - AVC - AAC 2.0-BollywoodA2z
Junglee (2019) 1080p - WEB-DL - AVC - AAC 2.0-BollywoodA2z
Junglee (2019) 1080p - WEB-DL - AVC - AAC 2.0-BollywoodA2z
Junglee (2019) 1080p - WEB-DL - AVC - AAC 2.0-BollywoodA2z
Junglee (2019) 1080p - WEB-DL - AVC - AAC 2.0-BollywoodA2z



Eid Sale buy Premium with FLAT 50% Discount Now Enjoy Premium Fast Speed and Support US.


SINGLE DIRECT FAST LINKS

https://www.heroupload.com/580926fb9c111b31/Junglee.2019.Hindi.1080p.WeB.DL.H264.AAC.2.0-BollywoodA2z.mkv



Buy Premium From My Links & Support Me

Tags: Junglee

Comments:

Dear visitor, you went to the site as unregistered user
We encourage you to create an account or enter the site under your name

Add comment

Name:*
E-Mail:*
Text:
Bold Italic Underline Strike | Align left Center Align right | Insert smilies Insert link URLInsert protected URL Select color | Add Hidden Text Insert Quote Convert selected text from selection to Cyrillic (Russian) alphabet Insert spoiler
Enter the code: *

Create an account

Advertising