» » Game of Thrones S04E01 BluRay 1080p x264 ESub [Dual Audio][Hindi+English] - KMHD

Game of Thrones S04E01 BluRay 1080p x264 ESub [Dual Audio][Hindi+English] - KMHD

Game of Thrones S04E01 BluRay 1080p x264 ESub [Dual Audio][Hindi+English] - KMHD




Format                      : Matroska
Format version              : Version 4
File size                   : 877 MiB
Duration                    : 58 min 13 s
Overall bit rate            : 2 106 kb/s
Encoded date                : UTC 2019-05-23 13:03:35
Writing application         : mkvmerge v33.1.0 ('Primrose') 32-bit
Writing library             : libebml v1.3.7 + libmatroska v1.5.0 / Lavf55.12.0
Cover                       : Yes
Attachments                 : Cover.jpg

Video
ID                          : 1
Format                      : AVC
Format/Info                 : Advanced Video Codec
Format profile              : [email protected]
Format settings             : CABAC / 4 Ref Frames
Format settings, CABAC      : Yes
Format settings, Reference  : 4 frames
Codec ID                    : V_MPEG4/ISO/AVC
Duration                    : 58 min 13 s
Bit rate                    : 1 576 kb/s
Width                       : 1 920 pixels
Height                      : 1 080 pixels
Display aspect ratio        : 16:9
Frame rate mode             : Constant
Frame rate                  : 23.976 (24000/1001) FPS
Color space                 : YUV
Chroma subsampling          : 4:2:0
Bit depth                   : 8 bits
Scan type                   : Progressive
Bits/(Pixel*Frame)          : 0.032
Stream size                 : 656 MiB (75%)
Writing library             : x264 core 142 r2479 dd79a61
Encoding settings           : cabac=1 / ref=4 / deblock=1:-1:-1 / analyse=0x3:0x133 / me=umh / subme=9 / psy=1 / psy_rd=1.00:0.15 / mixed_ref=1 / me_range=16 / chroma_me=1 / trellis=2 / 8x8dct=1 / cqm=0 / deadzone=21,11 / fast_pskip=1 / chroma_qp_offset=-3 / threads=12 / lookahead_threads=1 / sliced_threads=0 / nr=0 / decimate=1 / interlaced=0 / bluray_compat=0 / constrained_intra=0 / bframes=3 / b_pyramid=2 / b_adapt=2 / b_bias=0 / direct=3 / weightb=1 / open_gop=0 / weightp=2 / keyint=240 / keyint_min=24 / scenecut=40 / intra_refresh=0 / rc_lookahead=60 / rc=2pass / mbtree=1 / bitrate=1576 / ratetol=1.0 / qcomp=0.60 / qpmin=0 / qpmax=69 / qpstep=4 / cplxblur=20.0 / qblur=0.5 / vbv_maxrate=62500 / vbv_bufsize=78125 / nal_hrd=none / filler=0 / ip_ratio=1.40 / aq=1:1.00
Default                     : Yes
Forced                      : No
Color range                 : Limited
Color primaries             : BT.709
Transfer characteristics    : BT.709
Matrix coefficients         : BT.709

Audio #1
ID                          : 2
Format                      : MPEG Audio
Format version              : Version 1
Format profile              : Layer 3
Codec ID                    : A_MPEG/L3
Codec ID/Hint               : MP3
Duration                    : 58 min 13 s
Bit rate mode               : Constant
Bit rate                    : 320 kb/s
Channel(s)                  : 2 channels
Sampling rate               : 44.1 kHz
Frame rate                  : 38.281 FPS (1152 SPF)
Compression mode            : Lossy
Stream size                 : 133 MiB (15%)
Language                    : Hindi
Default                     : Yes
Forced                      : Yes

Audio #2
ID                          : 3
Format                      : AAC LC SBR
Format/Info                 : Advanced Audio Codec Low Complexity with Spectral Band Replication
Commercial name             : HE-AAC
Format settings             : Explicit
Codec ID                    : A_AAC-2
Duration                    : 58 min 13 s
Bit rate                    : 208 kb/s
Channel(s)                  : 6 channels
Channel layout              : C L R Ls Rs LFE
Sampling rate               : 48.0 kHz
Frame rate                  : 23.438 FPS (2048 SPF)
Compression mode            : Lossy
Delay relative to video     : 31 ms
Stream size                 : 86.5 MiB (10%)
Language                    : English
Default                     : No
Forced                      : No

Text
ID                          : 4
Format                      : UTF-8
Codec ID                    : S_TEXT/UTF8
Codec ID/Info               : UTF-8 Plain Text
Duration                    : 56 min 22 s
Bit rate                    : 65 b/s
Count of elements           : 831
Stream size                 : 27.2 KiB (0%)
Language                    : English
Default                     : Yes
Forced                      : No

Menu
00:00:00.000                : en:00:00:00.000
00:00:07.215                : en:00:00:07.007
00:01:50.610                : en:00:01:50.485
00:03:38.843                : en:00:03:38.760
00:09:27.859                : en:00:09:27.776
00:17:02.062                : en:00:17:01.979
00:25:16.348                : en:00:25:16.265
00:36:17.925                : en:00:36:17.842
00:46:36.335                : en:00:46:36.252
00:56:51.491                : en:00:56:51.325




Game of Thrones S04E01 BluRay 1080p x264 ESub [Dual Audio][Hindi+English] - KMHDGame of Thrones S04E01 BluRay 1080p x264 ESub [Dual Audio][Hindi+English] - KMHDGame of Thrones S04E01 BluRay 1080p x264 ESub [Dual Audio][Hindi+English] - KMHDGame of Thrones S04E01 BluRay 1080p x264 ESub [Dual Audio][Hindi+English] - KMHD

SINGLE DIRECT FAST LINKS

https://www.heroupload.com/009b9db6aeabda55/Game.of.Thrones.S04E01.1080p.Hindi-Eng.x264-KMHD.mkv




Buy Premium From My Links & Support Me

Tags: Game

Comments:

Dear visitor, you went to the site as unregistered user
We encourage you to create an account or enter the site under your name

Add comment

Name:*
E-Mail:*
Text:
Bold Italic Underline Strike | Align left Center Align right | Insert smilies Insert link URLInsert protected URL Select color | Add Hidden Text Insert Quote Convert selected text from selection to Cyrillic (Russian) alphabet Insert spoiler
Enter the code: *

Create an account

Advertising