» » Pokémon Detective Pikachu (2019) 720p - HDCAM-Rip - x264 [Dual Audio][Hindi+English]

Pokémon Detective Pikachu (2019) 720p - HDCAM-Rip - x264 [Dual Audio][Hindi+English]

Pokémon Detective Pikachu (2019) 720p - HDCAM-Rip - x264 [Dual Audio][Hindi+English]




Format                      : Matroska
Format version              : Version 4
File size                   : 955 MiB
Duration                    : 1 h 37 min
Overall bit rate mode       : Variable
Overall bit rate            : 1 367 kb/s
Encoded date                : UTC 2019-05-15 11:46:47
Writing application         : mkvmerge v33.1.0 ('Primrose') 32-bit
Writing library             : libebml v1.3.7 + libmatroska v1.5.0

Video
ID                          : 1
Format                      : AVC
Format/Info                 : Advanced Video Codec
Format profile              : [email protected]
Format settings             : CABAC / 4 Ref Frames
Format settings, CABAC      : Yes
Format settings, Reference  : 4 frames
Codec ID                    : V_MPEG4/ISO/AVC
Duration                    : 1 h 37 min
Bit rate                    : 1 183 kb/s
Width                       : 1 280 pixels
Height                      : 544 pixels
Display aspect ratio        : 2.40:1
Frame rate mode             : Variable
Frame rate                  : 30.000 FPS
Color space                 : YUV
Chroma subsampling          : 4:2:0
Bit depth                   : 8 bits
Scan type                   : Progressive
Bits/(Pixel*Frame)          : 0.057
Stream size                 : 826 MiB (87%)
Writing library             : x264 core 148 r2748 97eaef2
Encoding settings           : cabac=1 / ref=2 / deblock=1:0:0 / analyse=0x3:0x113 / me=hex / subme=4 / psy=1 / psy_rd=1.00:0.00 / mixed_ref=0 / me_range=16 / chroma_me=1 / trellis=1 / 8x8dct=1 / cqm=0 / deadzone=21,11 / fast_pskip=1 / chroma_qp_offset=0 / threads=6 / lookahead_threads=1 / sliced_threads=0 / nr=0 / decimate=1 / interlaced=0 / bluray_compat=0 / constrained_intra=0 / bframes=3 / b_pyramid=2 / b_adapt=1 / b_bias=0 / direct=1 / weightb=1 / open_gop=0 / weightp=1 / keyint=250 / keyint_min=25 / scenecut=40 / intra_refresh=0 / rc_lookahead=20 / rc=2pass / mbtree=1 / bitrate=1183 / ratetol=1.0 / qcomp=0.60 / qpmin=0 / qpmax=69 / qpstep=4 / cplxblur=20.0 / qblur=0.5 / ip_ratio=1.40 / aq=1:1.00
Language                    : English
Default                     : Yes
Forced                      : No

Audio #1
ID                          : 2
Format                      : MPEG Audio
Format version              : Version 1
Format profile              : Layer 3
Format settings             : Joint stereo / MS Stereo
Codec ID                    : A_MPEG/L3
Codec ID/Hint               : MP3
Duration                    : 1 h 37 min
Bit rate mode               : Variable
Bit rate                    : 90.5 kb/s
Nominal bit rate            : 96.0 kb/s
Channel(s)                  : 2 channels
Sampling rate               : 48.0 kHz
Frame rate                  : 41.667 FPS (1152 SPF)
Compression mode            : Lossy
Stream size                 : 63.3 MiB (7%)
Writing library             : LAME3.99r
Encoding settings           : -m j -V 4 -q 3 -lowpass 15.1 --abr 96
Language                    : Hindi
Default                     : Yes
Forced                      : No

Audio #2
ID                          : 3
Format                      : MPEG Audio
Format version              : Version 1
Format profile              : Layer 3
Format settings             : Joint stereo / MS Stereo
Codec ID                    : A_MPEG/L3
Codec ID/Hint               : MP3
Duration                    : 1 h 37 min
Bit rate mode               : Variable
Bit rate                    : 90.4 kb/s
Nominal bit rate            : 96.0 kb/s
Channel(s)                  : 2 channels
Sampling rate               : 48.0 kHz
Frame rate                  : 41.667 FPS (1152 SPF)
Compression mode            : Lossy
Stream size                 : 63.1 MiB (7%)
Writing library             : LAME3.99r
Encoding settings           : -m j -V 4 -q 3 -lowpass 15.1 --abr 96
Language                    : English
Default                     : No
Forced                      : No



Pokémon Detective Pikachu (2019) 720p - HDCAM-Rip - x264 [Dual Audio][Hindi+English]Pokémon Detective Pikachu (2019) 720p - HDCAM-Rip - x264 [Dual Audio][Hindi+English]Pokémon Detective Pikachu (2019) 720p - HDCAM-Rip - x264 [Dual Audio][Hindi+English]Pokémon Detective Pikachu (2019) 720p - HDCAM-Rip - x264 [Dual Audio][Hindi+English]Pokémon Detective Pikachu (2019) 720p - HDCAM-Rip - x264 [Dual Audio][Hindi+English]

SINGLE DIRECT FAST LINKS


https://www.heroupload.com/2ba7c14ee3740939/Pokémon.Detective.Pikachu.2019.HDCAM.720p.Hindi+English.mkv




Buy Premium From My Links & Support Me

Tags: Pok

Comments:

Dear visitor, you went to the site as unregistered user
We encourage you to create an account or enter the site under your name

Add comment

Name:*
E-Mail:*
Text:
Bold Italic Underline Strike | Align left Center Align right | Insert smilies Insert link URLInsert protected URL Select color | Add Hidden Text Insert Quote Convert selected text from selection to Cyrillic (Russian) alphabet Insert spoiler
Enter the code: *

Create an account

Advertising