» » Shazam (2019) 1080p - HDRip - x264 [Multi Line Audios][Hindi+Telugu+Tamil+English]

Shazam (2019) 1080p - HDRip - x264 [Multi Line Audios][Hindi+Telugu+Tamil+English]

Shazam (2019) 1080p - HDRip - x264 [Multi Line Audios][Hindi+Telugu+Tamil+English]




Format                      : Matroska
Format version              : Version 4
File size                   : 2.30 GiB
Duration                    : 2 h 10 min
Overall bit rate            : 2 524 kb/s
Encoded date                : UTC 2019-05-10 14:46:25
Writing application         : mkvmerge v33.1.0 ('Primrose') 32-bit
Writing library             : libebml v1.3.7 + libmatroska v1.5.0

Video
ID                          : 1
Format                      : AVC
Format/Info                 : Advanced Video Codec
Format profile              : [email protected]
Format settings             : CABAC / 4 Ref Frames
Format settings, CABAC      : Yes
Format settings, Reference  : 4 frames
Codec ID                    : V_MPEG4/ISO/AVC
Duration                    : 2 h 10 min
Bit rate                    : 2 156 kb/s
Width                       : 1 920 pixels
Height                      : 804 pixels
Display aspect ratio        : 2.40:1
Frame rate mode             : Constant
Frame rate                  : 30.000 FPS
Color space                 : YUV
Chroma subsampling          : 4:2:0
Bit depth                   : 8 bits
Scan type                   : Progressive
Bits/(Pixel*Frame)          : 0.047
Stream size                 : 1.94 GiB (85%)
Writing library             : x264 core 155 r2901 7d0ff22
Encoding settings           : cabac=1 / ref=1 / deblock=1:0:0 / analyse=0x3:0x113 / me=hex / subme=2 / psy=1 / psy_rd=1.00:0.00 / mixed_ref=0 / me_range=16 / chroma_me=1 / trellis=0 / 8x8dct=1 / cqm=0 / deadzone=21,11 / fast_pskip=1 / chroma_qp_offset=0 / threads=12 / lookahead_threads=4 / sliced_threads=0 / nr=0 / decimate=1 / interlaced=0 / bluray_compat=0 / constrained_intra=0 / bframes=3 / b_pyramid=2 / b_adapt=1 / b_bias=0 / direct=1 / weightb=1 / open_gop=0 / weightp=1 / keyint=300 / keyint_min=30 / scenecut=40 / intra_refresh=0 / rc_lookahead=10 / rc=abr / mbtree=1 / bitrate=2156 / ratetol=1.0 / qcomp=0.60 / qpmin=0 / qpmax=69 / qpstep=4 / vbv_maxrate=25000 / vbv_bufsize=31250 / nal_hrd=none / filler=0 / ip_ratio=1.40 / aq=1:1.00
Default                     : Yes
Forced                      : No
Color range                 : Limited
Color primaries             : BT.709
Transfer characteristics    : BT.709
Matrix coefficients         : BT.709

Audio #1
ID                          : 2
Format                      : AC-3
Format/Info                 : Audio Coding 3
Commercial name             : Dolby Digital
Codec ID                    : A_AC3
Duration                    : 2 h 10 min
Bit rate mode               : Constant
Bit rate                    : 96.0 kb/s
Channel(s)                  : 2 channels
Channel layout              : L R
Sampling rate               : 44.1 kHz
Frame rate                  : 28.711 FPS (1536 SPF)
Bit depth                   : 16 bits
Compression mode            : Lossy
Delay relative to video     : -46 ms
Stream size                 : 89.5 MiB (4%)
Language                    : Telugu
Service kind                : Complete Main
Default                     : No
Forced                      : No

Audio #2
ID                          : 3
Format                      : AC-3
Format/Info                 : Audio Coding 3
Commercial name             : Dolby Digital
Codec ID                    : A_AC3
Duration                    : 2 h 10 min
Bit rate mode               : Constant
Bit rate                    : 96.0 kb/s
Channel(s)                  : 2 channels
Channel layout              : L R
Sampling rate               : 44.1 kHz
Frame rate                  : 28.711 FPS (1536 SPF)
Bit depth                   : 16 bits
Compression mode            : Lossy
Delay relative to video     : -46 ms
Stream size                 : 89.5 MiB (4%)
Language                    : Tamil
Service kind                : Complete Main
Default                     : No
Forced                      : No

Audio #3
ID                          : 4
Format                      : AC-3
Format/Info                 : Audio Coding 3
Commercial name             : Dolby Digital
Codec ID                    : A_AC3
Duration                    : 2 h 10 min
Bit rate mode               : Constant
Bit rate                    : 96.0 kb/s
Channel(s)                  : 2 channels
Channel layout              : L R
Sampling rate               : 44.1 kHz
Frame rate                  : 28.711 FPS (1536 SPF)
Bit depth                   : 16 bits
Compression mode            : Lossy
Delay relative to video     : -46 ms
Stream size                 : 89.5 MiB (4%)
Language                    : Hindi
Service kind                : Complete Main
Default                     : Yes
Forced                      : Yes

Audio #4
ID                          : 5
Format                      : MPEG Audio
Format version              : Version 1
Format profile              : Layer 3
Format settings             : Joint stereo / MS Stereo
Codec ID                    : A_MPEG/L3
Codec ID/Hint               : MP3
Duration                    : 2 h 10 min
Bit rate mode               : Constant
Bit rate                    : 96.0 kb/s
Channel(s)                  : 2 channels
Sampling rate               : 48.0 kHz
Frame rate                  : 41.667 FPS (1152 SPF)
Compression mode            : Lossy
Delay relative to video     : -23 ms
Stream size                 : 89.5 MiB (4%)
Writing library             : LAME3.100
Language                    : English
Default                     : No
Forced                      : No



Shazam (2019) 1080p - HDRip - x264 [Multi Line Audios][Hindi+Telugu+Tamil+English]
Shazam (2019) 1080p - HDRip - x264 [Multi Line Audios][Hindi+Telugu+Tamil+English]
Shazam (2019) 1080p - HDRip - x264 [Multi Line Audios][Hindi+Telugu+Tamil+English]
Shazam (2019) 1080p - HDRip - x264 [Multi Line Audios][Hindi+Telugu+Tamil+English]
Shazam (2019) 1080p - HDRip - x264 [Multi Line Audios][Hindi+Telugu+Tamil+English]


SINGLE DIRECT FAST LINKS

https://www.heroupload.com/b9d182679c288954/Shazam!.2019.HDRip.1080p.x264.Line.AudsHindi+Telugu+Tamil+English.mkv


700MB LINKS


https://www.heroupload.com/b9658263a853abfe/Shazam!.2019.HDRip.1080p.x264.Line.AudsHindi+Telugu+Tamil+English.part1.rar
https://www.heroupload.com/6a46971a84da88da/Shazam!.2019.HDRip.1080p.x264.Line.AudsHindi+Telugu+Tamil+English.part2.rar
https://www.heroupload.com/e350656455effb02/Shazam!.2019.HDRip.1080p.x264.Line.AudsHindi+Telugu+Tamil+English.part3.rar
https://www.heroupload.com/c3b2d70a32b28cef/Shazam!.2019.HDRip.1080p.x264.Line.AudsHindi+Telugu+Tamil+English.part4.rar



Buy Premium From My Links & Support Me

Tags: Shazam

Comments:

Dear visitor, you went to the site as unregistered user
We encourage you to create an account or enter the site under your name

Add comment

Name:*
E-Mail:*
Text:
Bold Italic Underline Strike | Align left Center Align right | Insert smilies Insert link URLInsert protected URL Select color | Add Hidden Text Insert Quote Convert selected text from selection to Cyrillic (Russian) alphabet Insert spoiler
Enter the code: *

Create an account

Advertising