» » Wine Country (2019) 720p WEB-HDRip x264 DD5.1 [Dual Audio][Hindi+English] - Exclusive

Wine Country (2019) 720p WEB-HDRip x264 DD5.1 [Dual Audio][Hindi+English] - Exclusive

Wine Country (2019) 720p WEB-HDRip x264 DD5.1 [Dual Audio][Hindi+English] - Exclusive




Format                      : Matroska
Format version              : Version 4
File size                   : 1 023 MiB
Duration                    : 1 h 43 min
Overall bit rate            : 1 382 kb/s
Encoded date                : UTC 2019-05-10 13:22:41
Writing application         : mkvmerge v33.1.0 ('Primrose') 32-bit
Writing library             : libebml v1.3.7 + libmatroska v1.5.0

Video
ID                          : 1
Format                      : AVC
Format/Info                 : Advanced Video Codec
Format profile              : [email protected]
Format settings             : CABAC / 8 Ref Frames
Format settings, CABAC      : Yes
Format settings, Reference  : 8 frames
Codec ID                    : V_MPEG4/ISO/AVC
Duration                    : 1 h 43 min
Bit rate                    : 1 086 kb/s
Width                       : 1 280 pixels
Height                      : 640 pixels
Display aspect ratio        : 2.000
Frame rate mode             : Constant
Frame rate                  : 23.976 (24000/1001) FPS
Color space                 : YUV
Chroma subsampling          : 4:2:0
Bit depth                   : 8 bits
Scan type                   : Progressive
Bits/(Pixel*Frame)          : 0.055
Stream size                 : 804 MiB (79%)
Writing library             : x264 core 157 r2935 545de2f
Encoding settings           : cabac=1 / ref=8 / deblock=1:-1:-1 / analyse=0x3:0x133 / me=umh / subme=9 / psy=1 / psy_rd=1.00:0.10 / mixed_ref=1 / me_range=24 / chroma_me=1 / trellis=2 / 8x8dct=1 / cqm=0 / deadzone=21,11 / fast_pskip=1 / chroma_qp_offset=-3 / threads=20 / lookahead_threads=1 / sliced_threads=0 / nr=0 / decimate=1 / interlaced=0 / bluray_compat=0 / constrained_intra=0 / bframes=3 / b_pyramid=2 / b_adapt=2 / b_bias=0 / direct=3 / weightb=1 / open_gop=0 / weightp=2 / keyint=250 / keyint_min=23 / scenecut=40 / intra_refresh=0 / rc_lookahead=60 / rc=2pass / mbtree=1 / bitrate=1086 / ratetol=1.0 / qcomp=0.60 / qpmin=0 / qpmax=69 / qpstep=4 / cplxblur=20.0 / qblur=0.5 / ip_ratio=1.40 / aq=1:1.00
Language                    : English
Default                     : Yes
Forced                      : No

Audio #1
ID                          : 2
Format                      : AC-3
Format/Info                 : Audio Coding 3
Commercial name             : Dolby Digital
Codec ID                    : A_AC3
Duration                    : 1 h 43 min
Bit rate mode               : Constant
Bit rate                    : 224 kb/s
Channel(s)                  : 6 channels
Channel layout              : L R C LFE Ls Rs
Sampling rate               : 44.1 kHz
Frame rate                  : 28.711 FPS (1536 SPF)
Bit depth                   : 16 bits
Compression mode            : Lossy
Stream size                 : 166 MiB (16%)
Language                    : Hindi
Service kind                : Complete Main
Default                     : Yes
Forced                      : No

Audio #2
ID                          : 3
Format                      : AAC LC SBR
Format/Info                 : Advanced Audio Codec Low Complexity with Spectral Band Replication
Commercial name             : HE-AAC
Format settings             : Explicit
Codec ID                    : A_AAC-2
Duration                    : 1 h 43 min
Bit rate                    : 64.0 kb/s
Channel(s)                  : 2 channels
Channel layout              : L R
Sampling rate               : 48.0 kHz
Frame rate                  : 23.438 FPS (2048 SPF)
Compression mode            : Lossy
Delay relative to video     : 43 ms
Stream size                 : 47.4 MiB (5%)
Language                    : English
Default                     : No
Forced                      : No

Text #1
ID                          : 4
Format                      : UTF-8
Codec ID                    : S_TEXT/UTF8
Codec ID/Info               : UTF-8 Plain Text
Duration                    : 1 h 39 min
Bit rate                    : 108 b/s
Count of elements           : 2264
Stream size                 : 79.5 KiB (0%)
Language                    : English
Default                     : Yes
Forced                      : No



Wine Country (2019) 720p WEB-HDRip x264 DD5.1 [Dual Audio][Hindi+English] - Exclusive
Wine Country (2019) 720p WEB-HDRip x264 DD5.1 [Dual Audio][Hindi+English] - Exclusive
Wine Country (2019) 720p WEB-HDRip x264 DD5.1 [Dual Audio][Hindi+English] - Exclusive
Wine Country (2019) 720p WEB-HDRip x264 DD5.1 [Dual Audio][Hindi+English] - Exclusive
Wine Country (2019) 720p WEB-HDRip x264 DD5.1 [Dual Audio][Hindi+English] - Exclusive

SINGLE DIRECT FAST LINKS


https://www.heroupload.com/31aebea3ca2d3201/Wine.Country.2019.Proper.HDRip.720p.Hindi.DD5.1+English.mkv



Buy Premium From My Links & Support Me

Tags: Wine

Comments:

Dear visitor, you went to the site as unregistered user
We encourage you to create an account or enter the site under your name

Add comment

Name:*
E-Mail:*
Text:
Bold Italic Underline Strike | Align left Center Align right | Insert smilies Insert link URLInsert protected URL Select color | Add Hidden Text Insert Quote Convert selected text from selection to Cyrillic (Russian) alphabet Insert spoiler
Enter the code: *

Create an account

Advertising