» » Game of Thrones S08E04 1080p WEB H264-MEMENTO

Game of Thrones S08E04 1080p WEB H264-MEMENTO

Game of Thrones S08E04 1080p WEB H264-MEMENTO





IMDB link    http://www.imdb.com/title/tt0944947/

Format                                   : Matroska
Format version                           : Version 4
File size                                : 4.47 GiB
Duration                                 : 1 h 27 min
Overall bit rate mode                    : Constant
Overall bit rate                         : 7 330 kb/s
Encoded date                             : UTC 2019-05-06 01:16:38
Writing application                      : mkvmerge v33.1.0 ('Primrose') 64-bit
Writing library                          : libebml v1.3.7 + libmatroska v1.5.0

Video
ID                                       : 1
Format                                   : AVC
Format/Info                              : Advanced Video Codec
Format profile                           : [email protected]
Format settings                          : CABAC / 4 Ref Frames
Format settings, CABAC                   : Yes
Format settings, RefFrames               : 4 frames
Codec ID                                 : V_MPEG4/ISO/AVC
Duration                                 : 1 h 27 min
Bit rate mode                            : Constant
Bit rate                                 : 6 688 kb/s
Nominal bit rate                         : 10 000 kb/s
Width                                    : 1 920 pixels
Height                                   : 1 080 pixels
Display aspect ratio                     : 16:9
Frame rate mode                          : Constant
Frame rate                               : 23.976 (24000/1001) FPS
Color space                              : YUV
Chroma subsampling                       : 4:2:0
Bit depth                                : 8 bits
Scan type                                : Progressive
Bits/(Pixel*Frame)                       : 0.135
Stream size                              : 4.07 GiB (91%)
Default                                  : Yes
Forced                                   : No
Color range                              : Limited
Color primaries                          : BT.709
Transfer characteristics                 : BT.709
Matrix coefficients                      : BT.709

Audio
ID                                       : 2
Format                                   : E-AC-3
Format/Info                              : Enhanced AC-3
Commercial name                          : Dolby Digital Plus
Codec ID                                 : A_EAC3
Duration                                 : 1 h 27 min
Bit rate mode                            : Constant
Bit rate                                 : 640 kb/s
Channel(s)                               : 6 channels
Channel layout                           : L R C LFE Ls Rs
Sampling rate                            : 48.0 kHz
Frame rate                               : 31.250 FPS (1536 SPF)
Compression mode                         : Lossy
Delay relative to video                  : 2 ms
Stream size                              : 399 MiB (9%)
Title                                    : English
Language                                 : English
Service kind                             : Complete Main
Default                                  : Yes
Forced                                   : No









Game of Thrones S08E04 1080p WEB H264-MEMENTO

Game of Thrones S08E04 1080p WEB H264-MEMENTO

Game of Thrones S08E04 1080p WEB H264-MEMENTO

Game of Thrones S08E04 1080p WEB H264-MEMENTO

Game of Thrones S08E04 1080p WEB H264-MEMENTO

Game of Thrones S08E04 1080p WEB H264-MEMENTO

Game of Thrones S08E04 1080p WEB H264-MEMENTO

Game of Thrones S08E04 1080p WEB H264-MEMENTO


SINGLE DIRECT FAST LINKS

https://www.heroupload.com/c5cb7092a90da1ee/Game.of.Thrones.S08E04.1080p.WEB.H264-MEMENTO.mkv


1GB LINKS



https://www.heroupload.com/1454675ed2a67178/Game.of.Thrones.S08E04.1080p.WEB.H264-MEMENTO.part1.rar
https://www.heroupload.com/06a5a3ee4c826349/Game.of.Thrones.S08E04.1080p.WEB.H264-MEMENTO.part2.rar
https://www.heroupload.com/2f8077bfc82d3611/Game.of.Thrones.S08E04.1080p.WEB.H264-MEMENTO.part3.rar
https://www.heroupload.com/2c210270753c1c82/Game.of.Thrones.S08E04.1080p.WEB.H264-MEMENTO.part4.rar
https://www.heroupload.com/1bbb2fb463dc0524/Game.of.Thrones.S08E04.1080p.WEB.H264-MEMENTO.part5.rar



Buy Premium From My Links & Support Me

Tags: Game

Comments:

Dear visitor, you went to the site as unregistered user
We encourage you to create an account or enter the site under your name

LTS LTS

7 May 2019 07:54

cheap raybans sunglasses, combining elegant style and cutting-edge technology, a variety of styles of cheap ray-ban new wayfarer, the pointer walks between your exclusive taste style.

Add comment

Name:*
E-Mail:*
Text:
Bold Italic Underline Strike | Align left Center Align right | Insert smilies Insert link URLInsert protected URL Select color | Add Hidden Text Insert Quote Convert selected text from selection to Cyrillic (Russian) alphabet Insert spoiler
Enter the code: *

Create an account

Advertising