» » Mortal Engines (2018) 720p BluRay x264 DD5.1 [Dual Audio][Hindi+English] - Ranvijay

Mortal Engines (2018) 720p BluRay x264 DD5.1 [Dual Audio][Hindi+English] - Ranvijay

Mortal Engines (2018) 720p BluRay x264 DD5.1 [Dual Audio][Hindi+English] - Ranvijay




File size : 1.42 GiB
Duration : 2 h 8 min
Overall bit rate : 1 587 kb/s
Movie name : Mortal Engines (2018) 720p BluRay Dual Audio [Hindi DD5.1 - English DD5.1] - ESUB ~ Ranvijay

Video
ID : 1
Format : AVC
Format/Info : Advanced Video Codec
Duration : 2 h 8 min
Bit rate : 1 000 kb/s
Width : 1 280 pixels
Height : 536 pixels
Display aspect ratio : 2.40:1
Frame rate mode : Constant
Frame rate : 23.976 (24000/1001) FPS
Color space : YUV
Chroma subsampling : 4:2:0
Bit depth : 8 bits
Scan type : Progressive
Bits/(Pixel*Frame) : 0.061
Stream size : 917 MiB (63%)
Title : ~Ranvijay~

Audio #1
ID : 2
Format : AC-3
Format/Info : Audio Coding 3
Codec ID : A_AC3
Duration : 2 h 8 min
Bit rate mode : Constant
Bit rate : 384 kb/s
Channel(s) : 6 channels
Channel positions : Front: L C R, Side: L R, LFE
Sampling rate : 48.0 kHz
Frame rate : 31.250 FPS (1536 SPF)
Bit depth : 16 bits
Compression mode : Lossy
Delay relative to video : 14 ms
Stream size : 352 MiB (24%)
Title : ~Ranvijay~
Language : Hindi
Service kind : Complete Main
Default : Yes
Forced : Yes

Audio #2
ID : 3
Format : AC-3
Format/Info : Audio Coding 3
Codec ID : A_AC3
Duration : 2 h 8 min
Bit rate mode : Constant
Bit rate : 192 kb/s
Channel(s) : 6 channels
Channel positions : Front: L C R, Side: L R, LFE
Sampling rate : 48.0 kHz
Frame rate : 31.250 FPS (1536 SPF)
Bit depth : 16 bits
Compression mode : Lossy
Stream size : 176 MiB (12%)
Title : ~Ranvijay~
Language : English
Service kind : Complete Main
Default : No
Forced : No

Text
ID : 4
Format : PGS
Muxing mode : zlib
Codec ID : S_HDMV/PGS
Codec ID/Info : Picture based subtitle format used on BDs/HD-DVDs
Duration : 1 h 57 min
Bit rate : 32.9 kb/s
Count of elements : 2986
Stream size : 27.7 MiB (2%)
Title : ~Ranvijay~
Language : English
Default : Yes 




Mortal Engines (2018) 720p BluRay x264 DD5.1 [Dual Audio][Hindi+English] - Ranvijay
Mortal Engines (2018) 720p BluRay x264 DD5.1 [Dual Audio][Hindi+English] - Ranvijay
Mortal Engines (2018) 720p BluRay x264 DD5.1 [Dual Audio][Hindi+English] - Ranvijay
Mortal Engines (2018) 720p BluRay x264 DD5.1 [Dual Audio][Hindi+English] - Ranvijay
Mortal Engines (2018) 720p BluRay x264 DD5.1 [Dual Audio][Hindi+English] - Ranvijay
Mortal Engines (2018) 720p BluRay x264 DD5.1 [Dual Audio][Hindi+English] - Ranvijay
Mortal Engines (2018) 720p BluRay x264 DD5.1 [Dual Audio][Hindi+English] - Ranvijay
Mortal Engines (2018) 720p BluRay x264 DD5.1 [Dual Audio][Hindi+English] - Ranvijay
Mortal Engines (2018) 720p BluRay x264 DD5.1 [Dual Audio][Hindi+English] - Ranvijay


SINGLE DIRECT FAST LINKS


https://www.heroupload.com/9c38260cb0bfda73/Mortal.Engines.2018.720p.BluRay.Dual.Audio.Hindi.DD5.1.English.DD5.1.ESUB-Ranvijay.mkv



Buy Premium From My Links & Support Me

Tags: Mortal

Comments:

Dear visitor, you went to the site as unregistered user
We encourage you to create an account or enter the site under your name

Add comment

Name:*
E-Mail:*
Text:
Bold Italic Underline Strike | Align left Center Align right | Insert smilies Insert link URLInsert protected URL Select color | Add Hidden Text Insert Quote Convert selected text from selection to Cyrillic (Russian) alphabet Insert spoiler
Enter the code: *

Create an account

Advertising