» » The Beguiled (2017) 1080p BluRay x264 DD5.1 [Dual Audio][Hindi+English] - Ranvijay

The Beguiled (2017) 1080p BluRay x264 DD5.1 [Dual Audio][Hindi+English] - Ranvijay

The Beguiled (2017) 1080p BluRay x264 DD5.1 [Dual Audio][Hindi+English] - Ranvijay




File size : 3.29 GiB
Duration : 1 h 33 min
Overall bit rate : 5 037 kb/s
Movie name : The Beguiled (2017) 1080p BluRay x264 Dual Audio [Hindi DD5.1 - English DD5.1] - MSUBS ~ Ranvijay

Video
ID : 1
Format : AVC
Format/Info : Advanced Video Codec
Duration : 1 h 33 min
Bit rate : 4 000 kb/s
Width : 1 920 pixels
Height : 1 080 pixels
Display aspect ratio : 16:9
Frame rate mode : Constant
Frame rate : 23.976 (24000/1001) FPS
Color space : YUV
Chroma subsampling : 4:2:0
Bit depth : 8 bits
Scan type : Progressive
Bits/(Pixel*Frame) : 0.080
Stream size : 2.61 GiB (79%)
Title : ~Ranvijay~

Audio #1
ID : 2
Format : AC-3
Format/Info : Audio Coding 3
Codec ID : A_AC3
Duration : 1 h 33 min
Bit rate mode : Constant
Bit rate : 640 kb/s
Channel(s) : 6 channels
Channel positions : Front: L C R, Side: L R, LFE
Sampling rate : 48.0 kHz
Frame rate : 31.250 FPS (1536 SPF)
Bit depth : 16 bits
Compression mode : Lossy
Stream size : 428 MiB (13%)
Title : ~Ranvijay~
Language : Hindi
Service kind : Complete Main
Default : Yes
Forced : Yes

Audio #2
ID : 3
Format : AC-3
Format/Info : Audio Coding 3
Codec ID : A_AC3
Duration : 1 h 33 min
Bit rate mode : Constant
Bit rate : 384 kb/s
Channel(s) : 6 channels
Channel positions : Front: L C R, Side: L R, LFE
Sampling rate : 48.0 kHz
Frame rate : 31.250 FPS (1536 SPF)
Bit depth : 16 bits
Compression mode : Lossy
Stream size : 257 MiB (8%)
Title : ~Ranvijay~
Language : English
Service kind : Complete Main
Default : No
Forced : No

Text
ID : 4
Format : PGS
Muxing mode : zlib
Codec ID : S_HDMV/PGS
Codec ID/Info : Picture based subtitle format used on BDs/HD-DVDs
Duration : 1 h 29 min
Bit rate : 40.5 kb/s
Count of elements : 2642
Stream size : 26.0 MiB (1%)
Title : ~Ranvijay~
Language : English
Default : Yes
Forced : Yes 


The Beguiled (2017) 1080p BluRay x264 DD5.1 [Dual Audio][Hindi+English] - Ranvijay
The Beguiled (2017) 1080p BluRay x264 DD5.1 [Dual Audio][Hindi+English] - Ranvijay
The Beguiled (2017) 1080p BluRay x264 DD5.1 [Dual Audio][Hindi+English] - Ranvijay
The Beguiled (2017) 1080p BluRay x264 DD5.1 [Dual Audio][Hindi+English] - Ranvijay
The Beguiled (2017) 1080p BluRay x264 DD5.1 [Dual Audio][Hindi+English] - Ranvijay


SINGLE DIRECT FAST LINKS

https://www.heroupload.com/8a7b32e745c43173/The.Beguiled.2017.1080p.BluRay.x264.Dual.Audio.Hindi.DD5.1+English.DD5.1.ESUB-Ranvijay.mkv


1GB LINKS



https://www.heroupload.com/15290ec9f7f5ba41/The.Beguiled.2017.1080p.BluRay.x264.Dual.Audio.Hindi.DD5.1+English.DD5.1.ESUB-Ranvijay.part1.rar
https://www.heroupload.com/b39a863cc736c958/The.Beguiled.2017.1080p.BluRay.x264.Dual.Audio.Hindi.DD5.1+English.DD5.1.ESUB-Ranvijay.part2.rar
https://www.heroupload.com/0b06e889ba781652/The.Beguiled.2017.1080p.BluRay.x264.Dual.Audio.Hindi.DD5.1+English.DD5.1.ESUB-Ranvijay.part3.rar
https://www.heroupload.com/f4b6d14fa4696936/The.Beguiled.2017.1080p.BluRay.x264.Dual.Audio.Hindi.DD5.1+English.DD5.1.ESUB-Ranvijay.part4.rar



Buy Premium From My Links & Support Me

Tags: The

Comments:

Dear visitor, you went to the site as unregistered user
We encourage you to create an account or enter the site under your name

Add comment

Name:*
E-Mail:*
Text:
Bold Italic Underline Strike | Align left Center Align right | Insert smilies Insert link URLInsert protected URL Select color | Add Hidden Text Insert Quote Convert selected text from selection to Cyrillic (Russian) alphabet Insert spoiler
Enter the code: *

Create an account

Advertising