» » Glass (2019) 1080p WEB-DL DD5.1 H264-FGT

Glass (2019) 1080p WEB-DL DD5.1 H264-FGT

Glass (2019) 1080p WEB-DL DD5.1 H264-FGT





https://www.imdb.com/title/tt6823368/

Format                                   : Matroska
Format version                           : Version 4
File size                                : 4.46 GiB
Duration                                 : 2 h 9 min
Overall bit rate                         : 4 953 kb/s
Movie name                               : Glass.2019.1080p.WEB-DL.DD5.1.H264-FGT
Encoded date                             : UTC 2019-04-02 04:44:54
Writing application                      : mkvmerge v32.0.0 ('Astral Progressions') 64-bit
Writing library                          : libebml v1.3.7 + libmatroska v1.5.0
Cover                                    : Yes
Attachments                              : cover_land.jpg / small_cover.jpg / small_cover_land.jpg / cover.jpg

Video
ID                                       : 1
Format                                   : AVC
Format/Info                              : Advanced Video Codec
Format profile                           : High@L4
Format settings                          : CABAC / 5 Ref Frames
Format settings, CABAC                   : Yes
Format settings, RefFrames               : 5 frames
Codec ID                                 : V_MPEG4/ISO/AVC
Duration                                 : 2 h 9 min
Bit rate                                 : 4 567 kb/s
Width                                    : 1 920 pixels
Height                                   : 802 pixels
Display aspect ratio                     : 2.40:1
Frame rate mode                          : Constant
Frame rate                               : 23.976 (24000/1001) FPS
Color space                              : YUV
Chroma subsampling                       : 4:2:0
Bit depth                                : 8 bits
Scan type                                : Progressive
Bits/(Pixel*Frame)                       : 0.124
Stream size                              : 4.12 GiB (92%)
Title                                    : Glass.2019.1080p.WEB-DL.DD5.1.H264-FGT
Language                                 : English
Default                                  : Yes
Forced                                   : No
Color range                              : Limited
Color primaries                          : BT.709
Transfer characteristics                 : BT.709
Matrix coefficients                      : BT.709

Audio
ID                                       : 2
Format                                   : AC-3
Format/Info                              : Audio Coding 3
Commercial name                          : Dolby Digital
Codec ID                                 : A_AC3
Duration                                 : 2 h 9 min
Bit rate mode                            : Constant
Bit rate                                 : 384 kb/s
Channel(s)                               : 6 channels
Channel layout                           : L R C LFE Ls Rs
Sampling rate                            : 48.0 kHz
Frame rate                               : 31.250 FPS (1536 SPF)
Bit depth                                : 16 bits
Compression mode                         : Lossy
Delay relative to video                  : -42 ms
Stream size                              : 354 MiB (8%)
Title                                    : Glass.2019.1080p.WEB-DL.DD5.1.H264-FGT
Language                                 : English
Service kind                             : Complete Main
Default                                  : Yes
Forced                                   : No

Menu
00:00:00.000                             : en:1
00:04:09.457                             : en:2
00:09:37.368                             : en:3
00:14:31.078                             : en:4
00:19:50.897                             : en:5
00:24:42.063                             : en:6
00:29:46.826                             : en:7
00:35:01.599                             : en:8
00:39:08.595                             : en:9
00:47:29.220                             : en:10
00:57:17.224                             : en:11
01:02:56.271                             : en:12
01:09:27.829                             : en:13
01:14:31.299                             : en:14
01:21:44.774                             : en:15
01:30:11.530                             : en:16
01:38:16.514                             : en:17
01:44:09.742                             : en:18
01:54:08.215                             : en:19
02:03:01.289                             : en:20






Glass (2019) 1080p WEB-DL DD5.1 H264-FGTGlass (2019) 1080p WEB-DL DD5.1 H264-FGTGlass (2019) 1080p WEB-DL DD5.1 H264-FGT

SINGLE DIRECT FAST LINKS

https://www.heroupload.com/75558065b301e2e2/Glass.2019.1080p.WEB-DL.DD5.1.H264-FGT.mkv


1GB LINKS



https://www.heroupload.com/83b88c21d7b0a2c2/Glass.2019.1080p.WEB-DL.DD5.1.H264-FGT.part1.rar
https://www.heroupload.com/463e542499f6cf48/Glass.2019.1080p.WEB-DL.DD5.1.H264-FGT.part2.rar
https://www.heroupload.com/ccff8add2e338250/Glass.2019.1080p.WEB-DL.DD5.1.H264-FGT.part3.rar
https://www.heroupload.com/a1098e495ed6bc95/Glass.2019.1080p.WEB-DL.DD5.1.H264-FGT.part4.rar
https://www.heroupload.com/8d948e6bfa46389e/Glass.2019.1080p.WEB-DL.DD5.1.H264-FGT.part5.rar



Buy Premium From My Links & Support Me

Tags: Glass

Comments:

Dear visitor, you went to the site as unregistered user
We encourage you to create an account or enter the site under your name

yeezys2019

7 April 2019 07:52

Make no mistake, they want you to get Fake Yeezy Boost 350 Moonrock their artificial tennis shoe; they simply initially want you to be really clear that you are purchasing a fake tennis shoe.

Add comment

Name:*
E-Mail:*
Text:
Bold Italic Underline Strike | Align left Center Align right | Insert smilies Insert link URLInsert protected URL Select color | Add Hidden Text Insert Quote Convert selected text from selection to Cyrillic (Russian) alphabet Insert spoiler
Enter the code: *

Create an account

Advertising