» » Justice League vs. the Fatal Five (2019) 1080p WEB-DL DD5.1 H264-FGT

Justice League vs. the Fatal Five (2019) 1080p WEB-DL DD5.1 H264-FGT

Justice League vs. the Fatal Five (2019) 1080p WEB-DL DD5.1 H264-FGT





https://www.imdb.com/title/tt8752474/

Format                                   : Matroska
Format version                           : Version 4
File size                                : 2.99 GiB
Duration                                 : 1 h 17 min
Overall bit rate                         : 5 520 kb/s
Movie name                               : Justice.League.vs.the.Fatal.Five.2019.1080p.WEB-DL.DD5.1.H264-FGT
Encoded date                             : UTC 2019-03-30 09:02:29
Writing application                      : mkvmerge v32.0.0 ('Astral Progressions') 64-bit
Writing library                          : libebml v1.3.7 + libmatroska v1.5.0
Cover                                    : Yes
Attachments                              : small_cover.jpg / small_cover_land.jpg / cover.jpg / cover_land.jpg

Video
ID                                       : 1
Format                                   : AVC
Format/Info                              : Advanced Video Codec
Format profile                           : High@L4
Format settings                          : CABAC / 4 Ref Frames
Format settings, CABAC                   : Yes
Format settings, RefFrames               : 4 frames
Codec ID                                 : V_MPEG4/ISO/AVC
Duration                                 : 1 h 17 min
Bit rate                                 : 5 134 kb/s
Width                                    : 1 920 pixels
Height                                   : 1 080 pixels
Display aspect ratio                     : 16:9
Frame rate mode                          : Constant
Frame rate                               : 23.976 (24000/1001) FPS
Color space                              : YUV
Chroma subsampling                       : 4:2:0
Bit depth                                : 8 bits
Scan type                                : Progressive
Bits/(Pixel*Frame)                       : 0.103
Stream size                              : 2.78 GiB (93%)
Title                                    : Justice.League.vs.the.Fatal.Five.2019.1080p.WEB-DL.DD5.1.H264-FGT
Language                                 : English
Default                                  : Yes
Forced                                   : No
Color range                              : Limited
Color primaries                          : BT.709
Transfer characteristics                 : BT.709
Matrix coefficients                      : BT.709

Audio
ID                                       : 2
Format                                   : AC-3
Format/Info                              : Audio Coding 3
Commercial name                          : Dolby Digital
Codec ID                                 : A_AC3
Duration                                 : 1 h 17 min
Bit rate mode                            : Constant
Bit rate                                 : 384 kb/s
Channel(s)                               : 6 channels
Channel layout                           : L R C LFE Ls Rs
Sampling rate                            : 48.0 kHz
Frame rate                               : 31.250 FPS (1536 SPF)
Bit depth                                : 16 bits
Compression mode                         : Lossy
Delay relative to video                  : -42 ms
Stream size                              : 213 MiB (7%)
Title                                    : Justice.League.vs.the.Fatal.Five.2019.1080p.WEB-DL.DD5.1.H264-FGT
Language                                 : English
Service kind                             : Complete Main
Default                                  : Yes
Forced                                   : No

Text
ID                                       : 3
Format                                   : UTF-8
Codec ID                                 : S_TEXT/UTF8
Codec ID/Info                            : UTF-8 Plain Text
Duration                                 : 1 h 13 min
Bit rate                                 : 39 b/s
Count of elements                        : 756
Stream size                              : 21.0 KiB (0%)
Language                                 : English
Default                                  : Yes
Forced                                   : No

Menu
00:00:00.000                             : en:1
00:10:46.000                             : en:2
00:21:41.000                             : en:3
00:31:03.000                             : en:4
00:42:54.000                             : en:5
00:54:12.000                             : en:6
01:03:17.000                             : en:7
01:14:21.000                             : en:8






Justice League vs. the Fatal Five (2019) 1080p WEB-DL DD5.1 H264-FGTJustice League vs. the Fatal Five (2019) 1080p WEB-DL DD5.1 H264-FGTJustice League vs. the Fatal Five (2019) 1080p WEB-DL DD5.1 H264-FGT


SINGLE DIRECT FAST LINKS

https://www.heroupload.com/1b1c2ef7fb53a261/Justice.League.vs.the.Fatal.Five.2019.1080p.WEB-DL.DD5.1.H264-FGT.mkv


1GB LINKS


https://www.heroupload.com/f66f6ba860c3fe46/Justice.League.vs.the.Fatal.Five.2019.1080p.WEB-DL.DD5.1.H264-FGT.part1.rar
https://www.heroupload.com/74da41dbd048d5d5/Justice.League.vs.the.Fatal.Five.2019.1080p.WEB-DL.DD5.1.H264-FGT.part2.rar
https://www.heroupload.com/7c9ff3cc05b5359a/Justice.League.vs.the.Fatal.Five.2019.1080p.WEB-DL.DD5.1.H264-FGT.part3.rar


Buy Premium From My Links & Support Me

Tags: Justice

Comments:

Dear visitor, you went to the site as unregistered user
We encourage you to create an account or enter the site under your name

newyeezys2019

7 April 2019 07:46

For those reasons I had a couple Fake Yeezy Boost 350 V2 Clay of calls in the “gray market” and also I decided to see just what was up with these Yeezy Boosts.

Add comment

Name:*
E-Mail:*
Text:
Bold Italic Underline Strike | Align left Center Align right | Insert smilies Insert link URLInsert protected URL Select color | Add Hidden Text Insert Quote Convert selected text from selection to Cyrillic (Russian) alphabet Insert spoiler
Enter the code: *

Create an account

Advertising