» » Spider-Man: Into the Spider-Verse (2018) 720p BluRay x264 DD5.1 [Multi Audios][Hin...

Spider-Man: Into the Spider-Verse (2018) 720p BluRay x264 DD5.1 [Multi Audios][Hin...

Spider-Man: Into the Spider-Verse (2018) 720p BluRay x264 DD5.1 [Multi Audios][Hin...





Spider-Man: Into the Spider-Verse (2018) 720p BluRay x264 DD5.1 [Multi Audios][Hindi+Telugu+Tamil+English]
Format                                   : Matroska
Format version                           : Version 4
File size                                : 1.34 GiB
Duration                                 : 1 h 56 min
Overall bit rate                         : 1 637 kb/s
Encoded date                             : UTC 2019-03-19 12:56:50
Writing application                      : mkvmerge v29.0.0 ('Like It Or Not') 32-bit
Writing library                          : libebml v1.3.6 + libmatroska v1.4.9

Video
ID                                       : 1
Format                                   : AVC
Format/Info                              : Advanced Video Codec
Format profile                           : [email protected]
Format settings                          : CABAC / 12 Ref Frames
Format settings, CABAC                   : Yes
Format settings, RefFrames               : 12 frames
Codec ID                                 : V_MPEG4/ISO/AVC
Duration                                 : 1 h 56 min
Bit rate                                 : 1 150 kb/s
Width                                    : 1 280 pixels
Height                                   : 536 pixels
Display aspect ratio                     : 2.40:1
Frame rate mode                          : Constant
Frame rate                               : 23.976 (24000/1001) FPS
Color space                              : YUV
Chroma subsampling                       : 4:2:0
Bit depth                                : 8 bits
Scan type                                : Progressive
Bits/(Pixel*Frame)                       : 0.070
Stream size                              : 961 MiB (70%)
Writing library                          : x264 core 157 r2935 545de2f
Encoding settings                        : cabac=1 / ref=12 / deblock=1:-1:-1 / analyse=0x3:0x133 / me=umh / subme=10 / psy=1 / psy_rd=1.00:0.10 / mixed_ref=1 / me_range=24 / chroma_me=1 / trellis=2 / 8x8dct=1 / cqm=0 / deadzone=21,11 / fast_pskip=1 / chroma_qp_offset=-3 / threads=17 / lookahead_threads=2 / sliced_threads=0 / nr=0 / decimate=1 / interlaced=0 / bluray_compat=0 / constrained_intra=0 / bframes=8 / b_pyramid=2 / b_adapt=2 / b_bias=0 / direct=3 / weightb=1 / open_gop=0 / weightp=2 / keyint=250 / keyint_min=23 / scenecut=40 / intra_refresh=0 / rc_lookahead=60 / rc=2pass / mbtree=1 / bitrate=1150 / ratetol=1.0 / qcomp=0.60 / qpmin=0 / qpmax=69 / qpstep=4 / cplxblur=20.0 / qblur=0.5 / ip_ratio=1.40 / aq=1:1.00
Language                                 : English
Default                                  : Yes
Forced                                   : No

Audio #1
ID                                       : 2
Format                                   : AC-3
Format/Info                              : Audio Coding 3
Commercial name                          : Dolby Digital
Codec ID                                 : A_AC3
Duration                                 : 1 h 56 min
Bit rate mode                            : Constant
Bit rate                                 : 128 kb/s
Channel(s)                               : 6 channels
Channel layout                           : L R C LFE Ls Rs
Sampling rate                            : 44.1 kHz
Frame rate                               : 28.711 FPS (1536 SPF)
Bit depth                                : 16 bits
Compression mode                         : Lossy
Stream size                              : 107 MiB (8%)
Language                                 : Telugu
Service kind                             : Complete Main
Default                                  : Yes
Forced                                   : No

Audio #2
ID                                       : 3
Format                                   : AC-3
Format/Info                              : Audio Coding 3
Commercial name                          : Dolby Digital
Codec ID                                 : A_AC3
Duration                                 : 1 h 56 min
Bit rate mode                            : Constant
Bit rate                                 : 128 kb/s
Channel(s)                               : 6 channels
Channel layout                           : L R C LFE Ls Rs
Sampling rate                            : 44.1 kHz
Frame rate                               : 28.711 FPS (1536 SPF)
Bit depth                                : 16 bits
Compression mode                         : Lossy
Stream size                              : 107 MiB (8%)
Language                                 : Tamil
Service kind                             : Complete Main
Default                                  : No
Forced                                   : No

Audio #3
ID                                       : 4
Format                                   : AC-3
Format/Info                              : Audio Coding 3
Commercial name                          : Dolby Digital
Codec ID                                 : A_AC3
Duration                                 : 1 h 56 min
Bit rate mode                            : Constant
Bit rate                                 : 128 kb/s
Channel(s)                               : 6 channels
Channel layout                           : L R C LFE Ls Rs
Sampling rate                            : 44.1 kHz
Frame rate                               : 28.711 FPS (1536 SPF)
Bit depth                                : 16 bits
Compression mode                         : Lossy
Stream size                              : 107 MiB (8%)
Language                                 : Hindi
Service kind                             : Complete Main
Default                                  : No
Forced                                   : No

Audio #4
ID                                       : 5
Format                                   : AAC LC SBR
Format/Info                              : Advanced Audio Codec Low Complexity with Spectral Band Replication
Commercial name                          : HE-AAC
Format settings                          : Explicit
Codec ID                                 : A_AAC-2
Duration                                 : 1 h 56 min
Bit rate                                 : 100.0 kb/s
Channel(s)                               : 2 channels
Channel layout                           : L R
Sampling rate                            : 48.0 kHz
Frame rate                               : 23.438 FPS (2048 SPF)
Compression mode                         : Lossy
Delay relative to video                  : 43 ms
Stream size                              : 83.6 MiB (6%)
Language                                 : English
Default                                  : No
Forced                                   : No

Text
ID                                       : 6
Format                                   : UTF-8
Codec ID                                 : S_TEXT/UTF8
Codec ID/Info                            : UTF-8 Plain Text
Duration                                 : 1 h 55 min
Bit rate                                 : 55 b/s
Count of elements                        : 1371
Stream size                              : 46.6 KiB (0%)
Language                                 : English
Default                                  : Yes
Forced                                   : No

Menu
00:00:00.000                             : en:00:00:00.000
00:09:03.793                             : en:00:09:03.793
00:14:04.719                             : en:00:14:04.719
00:18:51.714                             : en:00:18:51.714
00:29:39.027                             : en:00:29:39.027
00:34:14.636                             : en:00:34:14.636
00:40:34.432                             : en:00:40:34.432
00:44:22.827                             : en:00:44:22.827
00:48:06.884                             : en:00:48:06.884
00:58:45.855                             : en:00:58:45.855
01:06:04.460                             : en:01:06:04.460
01:09:55.483                             : en:01:09:55.483
01:20:00.003                             : en:01:20:00.003
01:24:54.923                             : en:01:24:54.923
01:33:33.399                             : en:01:33:33.399
01:55:26.920                             : en:01:55:26.920



Spider-Man: Into the Spider-Verse (2018) 720p BluRay x264 DD5.1 [Multi Audios][Hin...Spider-Man: Into the Spider-Verse (2018) 720p BluRay x264 DD5.1 [Multi Audios][Hin...Spider-Man: Into the Spider-Verse (2018) 720p BluRay x264 DD5.1 [Multi Audios][Hin...Spider-Man: Into the Spider-Verse (2018) 720p BluRay x264 DD5.1 [Multi Audios][Hin...Spider-Man: Into the Spider-Verse (2018) 720p BluRay x264 DD5.1 [Multi Audios][Hin...


SINGLE DIRECT FAST LINKS


https://www.heroupload.com/ce5d58da539f02fb/Spider-Man.Into.the.Spider-Verse.2018.BluRay.720p.Original.DD5.1.Telugu+Tamil+Hindi+English.mkv




Buy Premium From My Links & Support Me

Tags: Spider

Comments:

Dear visitor, you went to the site as unregistered user
We encourage you to create an account or enter the site under your name

Add comment

Name:*
E-Mail:*
Text:
Bold Italic Underline Strike | Align left Center Align right | Insert smilies Insert link URLInsert protected URL Select color | Add Hidden Text Insert Quote Convert selected text from selection to Cyrillic (Russian) alphabet Insert spoiler
Enter the code: *

Create an account

Advertising