» » Viswasam (2019) Tamil - True 1080p - WEB-DL - UNTOUCHED - x264 - DD5.1 - ESubs-MTR

Viswasam (2019) Tamil - True 1080p - WEB-DL - UNTOUCHED - x264 - DD5.1 - ESubs-MTR

Viswasam (2019) Tamil - True 1080p - WEB-DL - UNTOUCHED - x264 - DD5.1 - ESubs-MTR





Format                                   : Matroska
Format version                           : Version 4
File size                                : 11.4 GiB
Duration                                 : 2 h 24 min
Overall bit rate                         : 11.2 Mb/s
Encoded date                             : UTC 2019-02-24 19:06:06
Writing application                      : mkvmerge v25.0.0 ('Prog Noir') 32-bit
Writing library                          : libebml v1.3.6 + libmatroska v1.4.9

Video
ID                                       : 1
Format                                   : AVC
Format/Info                              : Advanced Video Codec
Format profile                           : [email protected]
Format settings                          : CABAC / 4 Ref Frames
Format settings, CABAC                   : Yes
Format settings, RefFrames               : 4 frames
Codec ID                                 : V_MPEG4/ISO/AVC
Duration                                 : 2 h 24 min
Bit rate                                 : 10.6 Mb/s
Width                                    : 1 920 pixels
Height                                   : 800 pixels
Display aspect ratio                     : 2.40:1
Frame rate mode                          : Constant
Frame rate                               : 24.000 FPS
Color space                              : YUV
Chroma subsampling                       : 4:2:0
Bit depth                                : 8 bits
Scan type                                : Progressive
Bits/(Pixel*Frame)                       : 0.288
Stream size                              : 10.7 GiB (94%)
Default                                  : Yes
Forced                                   : No
Color range                              : Limited
Color primaries                          : BT.709
Transfer characteristics                 : BT.709
Matrix coefficients                      : BT.709

Audio
ID                                       : 2
Format                                   : E-AC-3
Format/Info                              : Enhanced AC-3
Commercial name                          : Dolby Digital Plus
Codec ID                                 : A_EAC3
Duration                                 : 2 h 24 min
Bit rate mode                            : Constant
Bit rate                                 : 640 kb/s
Channel(s)                               : 6 channels
Channel layout                           : L R C LFE Ls Rs
Sampling rate                            : 48.0 kHz
Frame rate                               : 31.250 FPS (1536 SPF)
Compression mode                         : Lossy
Stream size                              : 663 MiB (6%)
Title                                    : Telugu
Language                                 : Telugu
Service kind                             : Complete Main
Default                                  : No
Forced                                   : No

Text
ID                                       : 3
Format                                   : UTF-8
Codec ID                                 : S_TEXT/UTF8
Codec ID/Info                            : UTF-8 Plain Text
Duration                                 : 2 h 21 min
Bit rate                                 : 49 b/s
Count of elements                        : 1453
Stream size                              : 51.1 KiB (0%)
Title                                    : English [SDH]
Language                                 : English
Default                                  : No
Forced                                   : No


Viswasam (2019) Tamil - True 1080p - WEB-DL - UNTOUCHED - x264 - DD5.1 - ESubs-MTRViswasam (2019) Tamil - True 1080p - WEB-DL - UNTOUCHED - x264 - DD5.1 - ESubs-MTRViswasam (2019) Tamil - True 1080p - WEB-DL - UNTOUCHED - x264 - DD5.1 - ESubs-MTRViswasam (2019) Tamil - True 1080p - WEB-DL - UNTOUCHED - x264 - DD5.1 - ESubs-MTRViswasam (2019) Tamil - True 1080p - WEB-DL - UNTOUCHED - x264 - DD5.1 - ESubs-MTRViswasam (2019) Tamil - True 1080p - WEB-DL - UNTOUCHED - x264 - DD5.1 - ESubs-MTRViswasam (2019) Tamil - True 1080p - WEB-DL - UNTOUCHED - x264 - DD5.1 - ESubs-MTRViswasam (2019) Tamil - True 1080p - WEB-DL - UNTOUCHED - x264 - DD5.1 - ESubs-MTRViswasam (2019) Tamil - True 1080p - WEB-DL - UNTOUCHED - x264 - DD5.1 - ESubs-MTR

SINGLE DIRECT FAST LINKS

https://www.heroupload.com/84454712d9d3fc5b/Viswasam.2019.Tamil.1080p.TRUE.HD.AVC.UNTOUCHED.x264.DD5.1.ESubs-MTR.mkv


1GB LINKS


https://www.heroupload.com/0dab332fe4c470aa/Viswasam.2019.Tamil.1080p.TRUE.HD.AVC.UNTOUCHED.x264.DD5.1.ESubs-MTR.part01.rar
https://www.heroupload.com/8270b8457ba8e259/Viswasam.2019.Tamil.1080p.TRUE.HD.AVC.UNTOUCHED.x264.DD5.1.ESubs-MTR.part02.rar
https://www.heroupload.com/1bffa284151b43a5/Viswasam.2019.Tamil.1080p.TRUE.HD.AVC.UNTOUCHED.x264.DD5.1.ESubs-MTR.part03.rar
https://www.heroupload.com/04758b2f2aa7a416/Viswasam.2019.Tamil.1080p.TRUE.HD.AVC.UNTOUCHED.x264.DD5.1.ESubs-MTR.part04.rar
https://www.heroupload.com/70df44be52e40ea8/Viswasam.2019.Tamil.1080p.TRUE.HD.AVC.UNTOUCHED.x264.DD5.1.ESubs-MTR.part05.rar
https://www.heroupload.com/cc2b3f5a147a36bd/Viswasam.2019.Tamil.1080p.TRUE.HD.AVC.UNTOUCHED.x264.DD5.1.ESubs-MTR.part06.rar
https://www.heroupload.com/73d7d6e136552dc5/Viswasam.2019.Tamil.1080p.TRUE.HD.AVC.UNTOUCHED.x264.DD5.1.ESubs-MTR.part07.rar
https://www.heroupload.com/a7542445d2a9c9d7/Viswasam.2019.Tamil.1080p.TRUE.HD.AVC.UNTOUCHED.x264.DD5.1.ESubs-MTR.part08.rar
https://www.heroupload.com/2ff6b7f9ff3c333b/Viswasam.2019.Tamil.1080p.TRUE.HD.AVC.UNTOUCHED.x264.DD5.1.ESubs-MTR.part09.rar
https://www.heroupload.com/33959a0e38d821a1/Viswasam.2019.Tamil.1080p.TRUE.HD.AVC.UNTOUCHED.x264.DD5.1.ESubs-MTR.part10.rar
https://www.heroupload.com/8804c59e5fee970e/Viswasam.2019.Tamil.1080p.TRUE.HD.AVC.UNTOUCHED.x264.DD5.1.ESubs-MTR.part11.rar
https://www.heroupload.com/bb469d77ffda1461/Viswasam.2019.Tamil.1080p.TRUE.HD.AVC.UNTOUCHED.x264.DD5.1.ESubs-MTR.part12.rar
https://www.heroupload.com/dda4cbc4b0b84e24/Viswasam.2019.Tamil.1080p.TRUE.HD.AVC.UNTOUCHED.x264.DD5.1.ESubs-MTR.part13.rar


Buy Premium From My Links & Support Me

Tags: Viswasam

Comments:

Dear visitor, you went to the site as unregistered user
We encourage you to create an account or enter the site under your name

Add comment

Name:*
E-Mail:*
Text:
Bold Italic Underline Strike | Align left Center Align right | Insert smilies Insert link URLInsert protected URL Select color | Add Hidden Text Insert Quote Convert selected text from selection to Cyrillic (Russian) alphabet Insert spoiler
Enter the code: *

Create an account

Advertising