» » Sagaa (2019) Tamil - 1080p - WEB-HD - AVC - UNTOUCHED - DD 5.1 - ESubs-MTR

Sagaa (2019) Tamil - 1080p - WEB-HD - AVC - UNTOUCHED - DD 5.1 - ESubs-MTR

Sagaa (2019) Tamil - 1080p - WEB-HD - AVC - UNTOUCHED - DD 5.1 - ESubs-MTR




Format                                   : Matroska
Format version                           : Version 4
File size                                : 3.99 GiB
Duration                                 : 1 h 55 min
Overall bit rate                         : 4 965 kb/s
Encoded date                             : UTC 2018-11-25 19:20:01
Writing application                      : mkvmerge v25.0.0 ('Prog Noir') 32-bit
Writing library                          : libebml v1.3.6 + libmatroska v1.4.9

Video
ID                                       : 1
Format                                   : AVC
Format/Info                              : Advanced Video Codec
Format profile                           : [email protected]
Format settings                          : CABAC / 4 Ref Frames
Format settings, CABAC                   : Yes
Format settings, RefFrames               : 4 frames
Codec ID                                 : V_MPEG4/ISO/AVC
Duration                                 : 1 h 55 min
Bit rate                                 : 4 323 kb/s
Width                                    : 1 920 pixels
Height                                   : 1 080 pixels
Display aspect ratio                     : 16:9
Frame rate mode                          : Constant
Frame rate                               : 25.000 FPS
Color space                              : YUV
Chroma subsampling                       : 4:2:0
Bit depth                                : 8 bits
Scan type                                : Progressive
Bits/(Pixel*Frame)                       : 0.083
Stream size                              : 3.48 GiB (87%)
Default                                  : Yes
Forced                                   : No
Color range                              : Limited
Color primaries                          : BT.709
Transfer characteristics                 : BT.709
Matrix coefficients                      : BT.709

Audio
ID                                       : 2
Format                                   : E-AC-3
Format/Info                              : Enhanced AC-3
Commercial name                          : Dolby Digital Plus
Codec ID                                 : A_EAC3
Duration                                 : 1 h 55 min
Bit rate mode                            : Constant
Bit rate                                 : 640 kb/s
Channel(s)                               : 6 channels
Channel layout                           : L R C LFE Ls Rs
Sampling rate                            : 48.0 kHz
Frame rate                               : 31.250 FPS (1536 SPF)
Compression mode                         : Lossy
Stream size                              : 527 MiB (13%)
Title                                    : Tamil
Language                                 : Tamil
Service kind                             : Complete Main
Default                                  : No
Forced                                   : No

Text
ID                                       : 3
Format                                   : UTF-8
Codec ID                                 : S_TEXT/UTF8
Codec ID/Info                            : UTF-8 Plain Text
Duration                                 : 1 h 52 min
Bit rate                                 : 39 b/s
Count of elements                        : 1030
Stream size                              : 32.6 KiB (0%)
Title                                    : English [SDH]
Language                                 : English
Default                                  : No
Forced                                   : No


Sagaa (2019) Tamil - 1080p - WEB-HD - AVC - UNTOUCHED - DD 5.1 - ESubs-MTRSagaa (2019) Tamil - 1080p - WEB-HD - AVC - UNTOUCHED - DD 5.1 - ESubs-MTRSagaa (2019) Tamil - 1080p - WEB-HD - AVC - UNTOUCHED - DD 5.1 - ESubs-MTRSagaa (2019) Tamil - 1080p - WEB-HD - AVC - UNTOUCHED - DD 5.1 - ESubs-MTRSagaa (2019) Tamil - 1080p - WEB-HD - AVC - UNTOUCHED - DD 5.1 - ESubs-MTRSagaa (2019) Tamil - 1080p - WEB-HD - AVC - UNTOUCHED - DD 5.1 - ESubs-MTRSagaa (2019) Tamil - 1080p - WEB-HD - AVC - UNTOUCHED - DD 5.1 - ESubs-MTR


SINGLE DIRECT FAST LINKS

https://www.heroupload.com/09222377cb4548b7/Sagaa.2019.Tamil.1080p.HD.AVC.UNTOUCHED.x264.DD5.1.ESubs-MTR.mkv


1GB LINKS


https://www.heroupload.com/9ed855a4030d3151/Sagaa.2019.Tamil.1080p.HD.AVC.UNTOUCHED.x264.DD5.1.ESubs-MTR.part1.rar
https://www.heroupload.com/a0eb1503dcfdc14d/Sagaa.2019.Tamil.1080p.HD.AVC.UNTOUCHED.x264.DD5.1.ESubs-MTR.part2.rar
https://www.heroupload.com/c839d7e2614cddb2/Sagaa.2019.Tamil.1080p.HD.AVC.UNTOUCHED.x264.DD5.1.ESubs-MTR.part3.rar
https://www.heroupload.com/801bb878072489ee/Sagaa.2019.Tamil.1080p.HD.AVC.UNTOUCHED.x264.DD5.1.ESubs-MTR.part4.rar



Buy Premium From My Links & Support Me

Tags: Sagaa

Comments:

Dear visitor, you went to the site as unregistered user
We encourage you to create an account or enter the site under your name

Add comment

Name:*
E-Mail:*
Text:
Bold Italic Underline Strike | Align left Center Align right | Insert smilies Insert link URLInsert protected URL Select color | Add Hidden Text Insert Quote Convert selected text from selection to Cyrillic (Russian) alphabet Insert spoiler
Enter the code: *

Create an account

Advertising