» » Four More Shots Please! (2019) 1080p WEB-DL AVC DDP5.1 [Multi Audios][Hindi+Telu+Tam]

Four More Shots Please! (2019) 1080p WEB-DL AVC DDP5.1 [Multi Audios][Hindi+Telu+Tam]

Four More Shots Please! (2019) 1080p WEB-DL AVC DDP5.1 [Multi Audios][Hindi+Telu+Tam]




General
Complete name                            : 5. Love Her. Hate Her..mkv
Format                                   : Matroska
Format version                           : Version 4 / Version 2
File size                                : 2.08 GiB
Duration                                 : 31 min 45 s
Overall bit rate                         : 9 381 kb/s
Encoded date                             : UTC 2019-01-25 14:20:26
Writing application                      : mkvmerge v30.1.0 ('Forever And More') 64-bit
Writing library                          : libebml v1.3.6 + libmatroska v1.4.9

Video
ID                                       : 1
Format                                   : AVC
Format/Info                              : Advanced Video Codec
Format profile                           : High@L4
Format settings                          : CABAC / 4 Ref Frames
Format settings, CABAC                   : Yes
Format settings, RefFrames               : 4 frames
Codec ID                                 : V_MPEG4/ISO/AVC
Duration                                 : 31 min 45 s
Bit rate                                 : 7 457 kb/s
Width                                    : 1 920 pixels
Height                                   : 1 080 pixels
Display aspect ratio                     : 16:9
Frame rate mode                          : Constant
Frame rate                               : 25.000 FPS
Color space                              : YUV
Chroma subsampling                       : 4:2:0
Bit depth                                : 8 bits
Scan type                                : Progressive
Bits/(Pixel*Frame)                       : 0.144
Stream size                              : 1.65 GiB (79%)
Default                                  : Yes
Forced                                   : No
Color range                              : Limited
Color primaries                          : BT.709
Transfer characteristics                 : BT.709
Matrix coefficients                      : BT.709

Audio #1, #2 & #3
Format                                   : E-AC-3
Format/Info                              : Enhanced Audio Coding 3
Codec ID                                 : A_EAC3
Duration                                 : 31 min 45 s
Bit rate mode                            : Constant
Bit rate                                 : 640 kb/s
Channel(s)                               : 6 channels
Channel positions                        : Front: L C R, Side: L R, LFE
Sampling rate                            : 48.0 kHz
Frame rate                               : 187.500 FPS (256 SPF)
Compression mode                         : Lossy
Stream size                              : 145 MiB (7%)
Title                                    : Hindi
Language                                 : Hindi
Service kind                             : Complete Main
Default                                  : No
Forced                                   : No

Text #1, #2, #3 & #4
Format                                   : UTF-8
Codec ID                                 : S_TEXT/UTF8
Codec ID/Info                            : UTF-8 Plain Text
Duration                                 : 28 min 42 s
Bit rate                                 : 72 b/s
Count of elements                        : 646
Stream size                              : 15.2 KiB (0%)
Language                                 : English, Hindi, Tamil, Telugu
Default                                  : Yes, No, No, No
Forced                                   : No, No, No, No

Four More Shots Please! (2019) 1080p WEB-DL AVC DDP5.1 [Multi Audios][Hindi+Telu+Tam]Four More Shots Please! (2019) 1080p WEB-DL AVC DDP5.1 [Multi Audios][Hindi+Telu+Tam]Four More Shots Please! (2019) 1080p WEB-DL AVC DDP5.1 [Multi Audios][Hindi+Telu+Tam]Four More Shots Please! (2019) 1080p WEB-DL AVC DDP5.1 [Multi Audios][Hindi+Telu+Tam]
Four More Shots Please! (2019) 1080p WEB-DL AVC DDP5.1 [Multi Audios][Hindi+Telu+Tam]Four More Shots Please! (2019) 1080p WEB-DL AVC DDP5.1 [Multi Audios][Hindi+Telu+Tam]Four More Shots Please! (2019) 1080p WEB-DL AVC DDP5.1 [Multi Audios][Hindi+Telu+Tam]Four More Shots Please! (2019) 1080p WEB-DL AVC DDP5.1 [Multi Audios][Hindi+Telu+Tam]Four More Shots Please! (2019) 1080p WEB-DL AVC DDP5.1 [Multi Audios][Hindi+Telu+Tam]Four More Shots Please! (2019) 1080p WEB-DL AVC DDP5.1 [Multi Audios][Hindi+Telu+Tam]Four More Shots Please! (2019) 1080p WEB-DL AVC DDP5.1 [Multi Audios][Hindi+Telu+Tam]



SINGLE DIRECT FAST LINKS

https://www.heroupload.com/af282e3b5831853e/1.Ambitious.Prude.Feminist.Slut..mkv
https://www.heroupload.com/5a74c029046032f6/2.Strong.Girls.Don_t.Break..mkv
https://www.heroupload.com/26f588fff8240233/3.Long.Way.From.Ludhiana..mkv
https://www.heroupload.com/e1ecddeeea40a557/4.Ex.Why.Zzz.mkv
https://www.heroupload.com/36ac881f38f3f47e/5.Love.Her.Hate.Her..mkv
https://www.heroupload.com/c8dc60ac62a00451/6.Fuck.This.Bar..mkv
https://www.heroupload.com/ff510babe2c04bed/7.Gone.Girls..mkv
https://www.heroupload.com/c9dc651430f9fcd0/8.Fam-Jam-Wham-Bam.mkv
https://www.heroupload.com/60136f9ed277b875/9.Reality.Bites..mkv
https://www.heroupload.com/6912203275b866a6/10.Dancing.on.the.Edge..mkv







Buy Premium From My Links & Support Me

Tags: Four

Comments:

Dear visitor, you went to the site as unregistered user
We encourage you to create an account or enter the site under your name

Add comment

Name:*
E-Mail:*
Text:
Bold Italic Underline Strike | Align left Center Align right | Insert smilies Insert link URLInsert protected URL Select color | Add Hidden Text Insert Quote Convert selected text from selection to Cyrillic (Russian) alphabet Insert spoiler
Enter the code: *

Create an account

Advertising