» » 2 Friends (2018) Telugu - 720p - WEB-DL - UNTOUCHED - AVC - DD5.1-TMV

2 Friends (2018) Telugu - 720p - WEB-DL - UNTOUCHED - AVC - DD5.1-TMV

2 Friends (2018) Telugu - 720p - WEB-DL - UNTOUCHED - AVC - DD5.1-TMV





Format                                   : Matroska
Format version                           : Version 4
File size                                : 2.89 GiB
Duration                                 : 2 h 8 min
Overall bit rate                         : 3 225 kb/s
Encoded date                             : UTC 2019-01-23 16:56:56
Writing application                      : mkvmerge v29.0.0 ('Like It Or Not') 32-bit
Writing library                          : libebml v1.3.6 + libmatroska v1.4.9

Video
ID                                       : 1
Format                                   : AVC
Format/Info                              : Advanced Video Codec
Format profile                           : High@L3.1
Format settings                          : CABAC / 5 Ref Frames
Format settings, CABAC                   : Yes
Format settings, RefFrames               : 5 frames
Codec ID                                 : V_MPEG4/ISO/AVC
Duration                                 : 2 h 8 min
Bit rate                                 : 2 583 kb/s
Width                                    : 1 280 pixels
Height                                   : 544 pixels
Display aspect ratio                     : 2.35:1
Original display aspect ratio            : 2.35:1
Frame rate mode                          : Constant
Frame rate                               : 24.000 FPS
Color space                              : YUV
Chroma subsampling                       : 4:2:0
Bit depth                                : 8 bits
Scan type                                : Progressive
Bits/(Pixel*Frame)                       : 0.155
Stream size                              : 2.31 GiB (80%)
Language                                 : Telugu
Default                                  : Yes
Forced                                   : No
Color range                              : Limited
Color primaries                          : BT.709
Transfer characteristics                 : BT.709
Matrix coefficients                      : BT.709

Audio
ID                                       : 2
Format                                   : E-AC-3
Format/Info                              : Enhanced AC-3
Commercial name                          : Dolby Digital Plus
Codec ID                                 : A_EAC3
Duration                                 : 2 h 8 min
Bit rate mode                            : Constant
Bit rate                                 : 640 kb/s
Channel(s)                               : 6 channels
Channel layout                           : L R C LFE Ls Rs
Sampling rate                            : 48.0 kHz
Frame rate                               : 31.250 FPS (1536 SPF)
Compression mode                         : Lossy
Stream size                              : 587 MiB (20%)
Language                                 : Telugu
Service kind                             : Complete Main
Default                                  : Yes
Forced                                   : No

Text
ID                                       : 3
Format                                   : UTF-8
Codec ID                                 : S_TEXT/UTF8
Codec ID/Info                            : UTF-8 Plain Text
Duration                                 : 2 h 4 min
Bit rate                                 : 75 b/s
Count of elements                        : 1957
Stream size                              : 69.2 KiB (0%)
Language                                 : English
Default                                  : No
Forced                                   : No


2 Friends (2018) Telugu - 720p - WEB-DL - UNTOUCHED - AVC - DD5.1-TMV
SINGLE DIRECT FAST LINKS

https://www.heroupload.com/b578da1a305f80d9/2.Friends.2018.Telugu.WEB-DL.720p.AVC.UNTOUCHED.DD5.1.ESub-TMV.mkv


700MB LINKS


https://www.heroupload.com/1770a161dcfa0855/2.Friends.2018.Telugu.WEB-DL.720p.AVC.UNTOUCHED.DD5.1.ESub-TMV.part1.rar
https://www.heroupload.com/7433cae25850fbec/2.Friends.2018.Telugu.WEB-DL.720p.AVC.UNTOUCHED.DD5.1.ESub-TMV.part2.rar
https://www.heroupload.com/6b1725ac4a7cc9c2/2.Friends.2018.Telugu.WEB-DL.720p.AVC.UNTOUCHED.DD5.1.ESub-TMV.part3.rar
https://www.heroupload.com/c583f6cea2c42455/2.Friends.2018.Telugu.WEB-DL.720p.AVC.UNTOUCHED.DD5.1.ESub-TMV.part4.rar
https://www.heroupload.com/e01250847bb300dd/2.Friends.2018.Telugu.WEB-DL.720p.AVC.UNTOUCHED.DD5.1.ESub-TMV.part5.rar


Buy Premium From My Links & Support Me

Tags: 2

Comments:

Dear visitor, you went to the site as unregistered user
We encourage you to create an account or enter the site under your name

Add comment

Name:*
E-Mail:*
Text:
Bold Italic Underline Strike | Align left Center Align right | Insert smilies Insert link URLInsert protected URL Select color | Add Hidden Text Insert Quote Convert selected text from selection to Cyrillic (Russian) alphabet Insert spoiler
Enter the code: *

Create an account

Advertising