» » F2: Fun and Frustration (2019) Telugu - 720p - PreDVD - x264 - MP3-TMV

F2: Fun and Frustration (2019) Telugu - 720p - PreDVD - x264 - MP3-TMV

F2: Fun and Frustration (2019) Telugu - 720p - PreDVD - x264 - MP3-TMV




Format                                   : Matroska
Format version                           : Version 4
File size                                : 1.47 GiB
Duration                                 : 2 h 32 min
Overall bit rate mode                    : Variable
Overall bit rate                         : 1 373 kb/s
Encoded date                             : UTC 2019-01-12 09:38:29
Writing application                      : mkvmerge v6.0.0 ('Coming Up For Air') built on Jan 20 2013 09:52:00
Writing library                          : libebml v1.3.0 + libmatroska v1.4.0

Video
ID                                       : 1
Format                                   : AVC
Format/Info                              : Advanced Video Codec
Format profile                           : High@L3.1
Format settings                          : CABAC / 4 Ref Frames
Format settings, CABAC                   : Yes
Format settings, RefFrames               : 4 frames
Codec ID                                 : V_MPEG4/ISO/AVC
Duration                                 : 2 h 32 min
Bit rate                                 : 1 250 kb/s
Nominal bit rate                         : 1 432 kb/s
Width                                    : 1 280 pixels
Height                                   : 544 pixels
Display aspect ratio                     : 2.35:1
Frame rate mode                          : Constant
Frame rate                               : 23.976 (24000/1001) FPS
Color space                              : YUV
Chroma subsampling                       : 4:2:0
Bit depth                                : 8 bits
Scan type                                : Progressive
Bits/(Pixel*Frame)                       : 0.075
Stream size                              : 1.33 GiB (91%)
Writing library                          : x264 core 155 r2901 7d0ff22
Encoding settings                        : cabac=1 / ref=3 / deblock=1:0:0 / analyse=0x3:0x113 / me=hex / subme=7 / psy=1 / psy_rd=1.00:0.00 / mixed_ref=1 / me_range=16 / chroma_me=1 / trellis=1 / 8x8dct=1 / cqm=0 / deadzone=21,11 / fast_pskip=1 / chroma_qp_offset=-2 / threads=17 / lookahead_threads=2 / sliced_threads=0 / nr=0 / decimate=1 / interlaced=0 / bluray_compat=0 / constrained_intra=0 / bframes=3 / b_pyramid=2 / b_adapt=1 / b_bias=0 / direct=1 / weightb=1 / open_gop=0 / weightp=2 / keyint=240 / keyint_min=23 / scenecut=40 / intra_refresh=0 / rc_lookahead=40 / rc=abr / mbtree=1 / bitrate=1432 / ratetol=1.0 / qcomp=0.60 / qpmin=0 / qpmax=69 / qpstep=4 / ip_ratio=1.40 / aq=1:1.00
Language                                 : Telugu
Default                                  : Yes
Forced                                   : No
Statistics Tags Issue                    : mkvmerge v7.1.0 ('Good Love') 32bit built on Jul 27 2014 12:59:18 2019-01-12 09:33:38 / mkvmerge v6.0.0 ('Coming Up For Air') built on Jan 20 2013 09:52:00 2019-01-12 09:38:29
FromStats_BitRate                        : 1277360
FromStats_Duration                       : 02:23:28.016000000
FromStats_FrameCount                     : 206386
FromStats_StreamSize                     : 1374442343

Audio
ID                                       : 2
Format                                   : MPEG Audio
Format version                           : Version 1
Format profile                           : Layer 3
Format settings                          : Joint stereo / MS Stereo
Codec ID                                 : A_MPEG/L3
Codec ID/Hint                            : MP3
Duration                                 : 2 h 29 min
Bit rate mode                            : Variable
Bit rate                                 : 96.0 kb/s
Channel(s)                               : 2 channels
Sampling rate                            : 44.1 kHz
Frame rate                               : 38.281 FPS (1152 SPF)
Compression mode                         : Lossy
Stream size                              : 103 MiB (7%)
Writing library                          : LAME3.99r
Encoding settings                        : -m j -V 4 -q 3 -lowpass 15.1 --abr 96
Language                                 : Telugu
Default                                  : Yes
Forced                                   : No
Statistics Tags Issue                    : mkvmerge v7.1.0 ('Good Love') 32bit built on Jul 27 2014 12:59:18 2019-01-12 09:33:38 / mkvmerge v6.0.0 ('Coming Up For Air') built on Jan 20 2013 09:52:00 2019-01-12 09:38:29
FromStats_BitRate                        : 100350
FromStats_Duration                       : 02:23:27.974000000
FromStats_FrameCount                     : 329524
FromStats_StreamSize                     : 107976351



F2: Fun and Frustration (2019) Telugu - 720p - PreDVD - x264 - MP3-TMVF2: Fun and Frustration (2019) Telugu - 720p - PreDVD - x264 - MP3-TMVF2: Fun and Frustration (2019) Telugu - 720p - PreDVD - x264 - MP3-TMVF2: Fun and Frustration (2019) Telugu - 720p - PreDVD - x264 - MP3-TMVF2: Fun and Frustration (2019) Telugu - 720p - PreDVD - x264 - MP3-TMVF2: Fun and Frustration (2019) Telugu - 720p - PreDVD - x264 - MP3-TMVF2: Fun and Frustration (2019) Telugu - 720p - PreDVD - x264 - MP3-TMVF2: Fun and Frustration (2019) Telugu - 720p - PreDVD - x264 - MP3-TMVF2: Fun and Frustration (2019) Telugu - 720p - PreDVD - x264 - MP3-TMVF2: Fun and Frustration (2019) Telugu - 720p - PreDVD - x264 - MP3-TMV

SINGLE DIRECT FAST LINKS



https://www.heroupload.com/7f13d78e50a7c709/F2.Fun.and.Frustration.2019.Telugu.PreDVD.720p.x264-TMV.mkv




Buy Premium From My Links & Support Me

Tags: F2

Comments:

Dear visitor, you went to the site as unregistered user
We encourage you to create an account or enter the site under your name

Add comment

Name:*
E-Mail:*
Text:
Bold Italic Underline Strike | Align left Center Align right | Insert smilies Insert link URLInsert protected URL Select color | Add Hidden Text Insert Quote Convert selected text from selection to Cyrillic (Russian) alphabet Insert spoiler
Enter the code: *

Create an account

Advertising