» » Split (2016) 720p BluRay x264 [Dual Audio][Hindi+English] - KMHD

Split (2016) 720p BluRay x264 [Dual Audio][Hindi+English] - KMHD

Split (2016) 720p BluRay x264 [Dual Audio][Hindi+English] - KMHD






Format                                   : Matroska
Format version                           : Version 4
File size                                : 1.00 GiB
Duration                                 : 1 h 57 min
Overall bit rate                         : 1 222 kb/s
Encoded date                             : UTC 2019-01-07 13:43:41
Writing application                      : mkvmerge v29.0.0 ('Like It Or Not') 32-bit
Writing library                          : libebml v1.3.6 + libmatroska v1.4.9

Video
ID                                       : 1
Format                                   : AVC
Format/Info                              : Advanced Video Codec
Format profile                           : High@L4.1
Format settings                          : CABAC / 4 Ref Frames
Format settings, CABAC                   : Yes
Format settings, RefFrames               : 4 frames
Codec ID                                 : V_MPEG4/ISO/AVC
Duration                                 : 1 h 57 min
Bit rate                                 : 900 kb/s
Width                                    : 1 280 pixels
Height                                   : 534 pixels
Display aspect ratio                     : 2.40:1
Original display aspect ratio            : 2.40:1
Frame rate mode                          : Constant
Frame rate                               : 23.976 (24000/1001) FPS
Color space                              : YUV
Chroma subsampling                       : 4:2:0
Bit depth                                : 8 bits
Scan type                                : Progressive
Bits/(Pixel*Frame)                       : 0.055
Stream size                              : 754 MiB (74%)
Writing library                          : x264 core 148
Encoding settings                        : cabac=1 / ref=4 / deblock=1:-1:-1 / analyse=0x3:0x133 / me=umh / subme=9 / psy=1 / psy_rd=1.00:0.15 / mixed_ref=1 / me_range=24 / chroma_me=1 / trellis=2 / 8x8dct=1 / cqm=0 / deadzone=21,11 / fast_pskip=0 / chroma_qp_offset=-3 / threads=12 / lookahead_threads=1 / sliced_threads=0 / nr=0 / decimate=1 / interlaced=0 / bluray_compat=0 / constrained_intra=0 / bframes=3 / b_pyramid=2 / b_adapt=2 / b_bias=0 / direct=3 / weightb=1 / open_gop=0 / weightp=2 / keyint=250 / keyint_min=23 / scenecut=40 / intra_refresh=0 / rc_lookahead=60 / rc=2pass / mbtree=1 / bitrate=900 / ratetol=1.0 / qcomp=0.60 / qpmin=0 / qpmax=69 / qpstep=4 / cplxblur=20.0 / qblur=0.5 / vbv_maxrate=31250 / vbv_bufsize=31250 / nal_hrd=none / filler=0 / ip_ratio=1.40 / aq=1:1.00
Default                                  : Yes
Forced                                   : No

Audio #1
ID                                       : 2
Format                                   : AAC LC
Format/Info                              : Advanced Audio Codec Low Complexity
Codec ID                                 : A_AAC-2
Duration                                 : 1 h 57 min
Bit rate                                 : 192 kb/s
Channel(s)                               : 6 channels
Channel layout                           : C L R Ls Rs LFE
Sampling rate                            : 48.0 kHz
Frame rate                               : 46.875 FPS (1024 SPF)
Compression mode                         : Lossy
Delay relative to video                  : -43 ms
Stream size                              : 161 MiB (16%)
Language                                 : Hindi
Default                                  : Yes
Forced                                   : Yes

Audio #2
ID                                       : 3
Format                                   : AAC LC
Format/Info                              : Advanced Audio Codec Low Complexity
Codec ID                                 : A_AAC-2
Duration                                 : 1 h 57 min
Bit rate                                 : 128 kb/s
Channel(s)                               : 2 channels
Channel layout                           : L R
Sampling rate                            : 48.0 kHz
Frame rate                               : 46.875 FPS (1024 SPF)
Compression mode                         : Lossy
Delay relative to video                  : -43 ms
Stream size                              : 107 MiB (10%)
Language                                 : English
Default                                  : No
Forced                                   : No

Text
ID                                       : 4
Format                                   : UTF-8
Codec ID                                 : S_TEXT/UTF8
Codec ID/Info                            : UTF-8 Plain Text
Duration                                 : 1 h 51 min
Bit rate                                 : 43 b/s
Count of elements                        : 1231
Stream size                              : 35.7 KiB (0%)
Language                                 : English
Default                                  : Yes
Forced                                   : No





Split (2016) 720p BluRay x264 [Dual Audio][Hindi+English] - KMHD
Split (2016) 720p BluRay x264 [Dual Audio][Hindi+English] - KMHD
Split (2016) 720p BluRay x264 [Dual Audio][Hindi+English] - KMHD
Split (2016) 720p BluRay x264 [Dual Audio][Hindi+English] - KMHD
Split (2016) 720p BluRay x264 [Dual Audio][Hindi+English] - KMHD
Split (2016) 720p BluRay x264 [Dual Audio][Hindi+English] - KMHD
Split (2016) 720p BluRay x264 [Dual Audio][Hindi+English] - KMHD
Split (2016) 720p BluRay x264 [Dual Audio][Hindi+English] - KMHD
Split (2016) 720p BluRay x264 [Dual Audio][Hindi+English] - KMHD
Split (2016) 720p BluRay x264 [Dual Audio][Hindi+English] - KMHD
Split (2016) 720p BluRay x264 [Dual Audio][Hindi+English] - KMHD
Split (2016) 720p BluRay x264 [Dual Audio][Hindi+English] - KMHD
Split (2016) 720p BluRay x264 [Dual Audio][Hindi+English] - KMHD

SINGLE DIRECT FAST LINKS

 https://www.heroupload.com/16b837513c6c76c3/Split.2016.720p.BluRay.Hindi.5.1-Eng.x264-KMHD.mkv



Buy Premium From My Links & Support Me

Tags: Split

Comments:

Dear visitor, you went to the site as unregistered user
We encourage you to create an account or enter the site under your name

Add comment

Name:*
E-Mail:*
Text:
Bold Italic Underline Strike | Align left Center Align right | Insert smilies Insert link URLInsert protected URL Select color | Add Hidden Text Insert Quote Convert selected text from selection to Cyrillic (Russian) alphabet Insert spoiler
Enter the code: *

Create an account

Advertising