» » C/o Kancharapalem (2018) Telugu - 720p - HDRip - x264 - AAC - ESub-TMV

C/o Kancharapalem (2018) Telugu - 720p - HDRip - x264 - AAC - ESub-TMV

C/o Kancharapalem (2018) Telugu - 720p - HDRip - x264 - AAC - ESub-TMV





Format                                   : Matroska
Format version                           : Version 4
File size                                : 1.36 GiB
Duration                                 : 2 h 26 min
Overall bit rate                         : 1 329 kb/s
Encoded date                             : UTC 2019-01-03 19:51:13
Writing application                      : mkvmerge v29.0.0 ('Like It Or Not') 32-bit
Writing library                          : libebml v1.3.6 + libmatroska v1.4.9

Video
ID                                       : 1
Format                                   : AVC
Format/Info                              : Advanced Video Codec
Format profile                           : High@L3.2
Format settings                          : CABAC / 4 Ref Frames
Format settings, CABAC                   : Yes
Format settings, RefFrames               : 4 frames
Codec ID                                 : V_MPEG4/ISO/AVC
Duration                                 : 2 h 26 min
Bit rate                                 : 1 205 kb/s
Width                                    : 1 280 pixels
Height                                   : 544 pixels
Display aspect ratio                     : 2.35:1
Frame rate mode                          : Constant
Frame rate                               : 24.000 FPS
Color space                              : YUV
Chroma subsampling                       : 4:2:0
Bit depth                                : 8 bits
Scan type                                : Progressive
Bits/(Pixel*Frame)                       : 0.072
Stream size                              : 1.23 GiB (90%)
Writing library                          : x264 core 155 r2901 7d0ff22
Encoding settings                        : cabac=1 / ref=2 / deblock=1:0:0 / analyse=0x3:0x113 / me=hex / subme=6 / psy=1 / psy_rd=1.00:0.00 / mixed_ref=1 / me_range=16 / chroma_me=1 / trellis=1 / 8x8dct=1 / cqm=0 / deadzone=21,11 / fast_pskip=1 / chroma_qp_offset=-2 / threads=12 / lookahead_threads=2 / sliced_threads=0 / nr=0 / decimate=1 / interlaced=0 / bluray_compat=0 / constrained_intra=0 / bframes=3 / b_pyramid=2 / b_adapt=1 / b_bias=0 / direct=1 / weightb=1 / open_gop=0 / weightp=1 / keyint=240 / keyint_min=24 / scenecut=40 / intra_refresh=0 / rc_lookahead=30 / rc=abr / mbtree=1 / bitrate=1205 / ratetol=1.0 / qcomp=0.60 / qpmin=0 / qpmax=69 / qpstep=4 / vbv_maxrate=25000 / vbv_bufsize=25000 / nal_hrd=none / filler=0 / ip_ratio=1.40 / aq=1:1.00
Language                                 : Telugu
Default                                  : Yes
Forced                                   : No
Color range                              : Limited
Color primaries                          : BT.709
Transfer characteristics                 : BT.709
Matrix coefficients                      : BT.709

Audio
ID                                       : 2
Format                                   : AAC LC
Format/Info                              : Advanced Audio Codec Low Complexity
Codec ID                                 : A_AAC-2
Duration                                 : 2 h 26 min
Bit rate                                 : 126 kb/s
Channel(s)                               : 2 channels
Channel layout                           : L R
Sampling rate                            : 48.0 kHz
Frame rate                               : 46.875 FPS (1024 SPF)
Compression mode                         : Lossy
Delay relative to video                  : -42 ms
Stream size                              : 132 MiB (9%)
Language                                 : Telugu
Default                                  : Yes
Forced                                   : No

Text
ID                                       : 3
Format                                   : UTF-8
Codec ID                                 : S_TEXT/UTF8
Codec ID/Info                            : UTF-8 Plain Text
Duration                                 : 2 h 21 min
Bit rate                                 : 63 b/s
Count of elements                        : 1735
Stream size                              : 65.9 KiB (0%)
Language                                 : English
Default                                  : Yes
Forced                                   : No




C/o Kancharapalem (2018) Telugu - 720p - HDRip - x264 - AAC - ESub-TMVC/o Kancharapalem (2018) Telugu - 720p - HDRip - x264 - AAC - ESub-TMVC/o Kancharapalem (2018) Telugu - 720p - HDRip - x264 - AAC - ESub-TMVC/o Kancharapalem (2018) Telugu - 720p - HDRip - x264 - AAC - ESub-TMVC/o Kancharapalem (2018) Telugu - 720p - HDRip - x264 - AAC - ESub-TMVC/o Kancharapalem (2018) Telugu - 720p - HDRip - x264 - AAC - ESub-TMVC/o Kancharapalem (2018) Telugu - 720p - HDRip - x264 - AAC - ESub-TMVC/o Kancharapalem (2018) Telugu - 720p - HDRip - x264 - AAC - ESub-TMVC/o Kancharapalem (2018) Telugu - 720p - HDRip - x264 - AAC - ESub-TMVC/o Kancharapalem (2018) Telugu - 720p - HDRip - x264 - AAC - ESub-TMV

SINGLE DIRECT FAST LINKS



https://www.heroupload.com/800c6770931dd318/C.o.Kancharapalem.2018.Telugu.Proper.HDRip.720p.x264.AAC.ESub-TMV.mkv


Buy Premium From My Links & Support Me

Tags: C

Comments:

Dear visitor, you went to the site as unregistered user
We encourage you to create an account or enter the site under your name

Add comment

Name:*
E-Mail:*
Text:
Bold Italic Underline Strike | Align left Center Align right | Insert smilies Insert link URLInsert protected URL Select color | Add Hidden Text Insert Quote Convert selected text from selection to Cyrillic (Russian) alphabet Insert spoiler
Enter the code: *

Create an account

Advertising