» » Dassehra (2018) 1080p - WEB-DL - AVC - DDP5.1 - ESub-DUS Exclusive

Dassehra (2018) 1080p - WEB-DL - AVC - DDP5.1 - ESub-DUS Exclusive

Dassehra (2018) 1080p - WEB-DL - AVC - DDP5.1 - ESub-DUS Exclusive






Format                                   : Matroska
Format version                           : Version 4 / Version 2
File size                                : 4.97 GiB
Duration                                 : 1 h 47 min
Overall bit rate                         : 6 639 kb/s
Encoded date                             : UTC 2018-12-22 09:45:41
Writing application                      : mkvmerge v28.2.0 ('The Awakening') 64-bit
Writing library                          : libebml v1.3.6 + libmatroska v1.4.9

Video
ID                                       : 1
Format                                   : AVC
Format/Info                              : Advanced Video Codec
Format profile                           : High@L4
Format settings                          : CABAC / 4 Ref Frames
Format settings, CABAC                   : Yes
Format settings, RefFrames               : 4 frames
Codec ID                                 : V_MPEG4/ISO/AVC
Duration                                 : 1 h 47 min
Bit rate                                 : 5 997 kb/s
Width                                    : 1 920 pixels
Height                                   : 816 pixels
Display aspect ratio                     : 2.35:1
Frame rate mode                          : Constant
Frame rate                               : 24.000 FPS
Color space                              : YUV
Chroma subsampling                       : 4:2:0
Bit depth                                : 8 bits
Scan type                                : Progressive
Bits/(Pixel*Frame)                       : 0.159
Stream size                              : 4.49 GiB (90%)
Default                                  : Yes
Forced                                   : No
Color range                              : Limited
Color primaries                          : BT.709
Transfer characteristics                 : BT.709
Matrix coefficients                      : BT.709

Audio
ID                                       : 2
Format                                   : E-AC-3
Format/Info                              : Enhanced Audio Coding 3
Codec ID                                 : A_EAC3
Duration                                 : 1 h 47 min
Bit rate mode                            : Constant
Bit rate                                 : 640 kb/s
Channel(s)                               : 6 channels
Channel positions                        : Front: L C R, Side: L R, LFE
Sampling rate                            : 48.0 kHz
Frame rate                               : 187.500 FPS (256 SPF)
Compression mode                         : Lossy
Stream size                              : 491 MiB (10%)
Title                                    : Hindi
Language                                 : Hindi
Service kind                             : Complete Main
Default                                  : No
Forced                                   : No

Text
ID                                       : 3
Format                                   : UTF-8
Codec ID                                 : S_TEXT/UTF8
Codec ID/Info                            : UTF-8 Plain Text
Duration                                 : 1 h 40 min
Bit rate                                 : 41 b/s
Count of elements                        : 1042
Stream size                              : 30.3 KiB (0%)
Title                                    : English [SDH]
Language                                 : English
Default                                  : No
Forced                                   : No


Dassehra (2018) 1080p - WEB-DL - AVC - DDP5.1 - ESub-DUS ExclusiveDassehra (2018) 1080p - WEB-DL - AVC - DDP5.1 - ESub-DUS ExclusiveDassehra (2018) 1080p - WEB-DL - AVC - DDP5.1 - ESub-DUS ExclusiveDassehra (2018) 1080p - WEB-DL - AVC - DDP5.1 - ESub-DUS ExclusiveDassehra (2018) 1080p - WEB-DL - AVC - DDP5.1 - ESub-DUS Exclusive

SINGLE DIRECT FAST LINKS

https://www.heroupload.us/34955147204722b3/Dassehra.2018.Hindi.1080p.AMZN.WEB-DL.DDP.5.1.ESub-DUS.mkv


1GB LINKS


https://www.heroupload.us/4794a6c9a1074d5c/Dassehra.2018.Hindi.1080p.AMZN.WEB-DL.DDP.5.1.ESub-DUS.part1.rar
https://www.heroupload.us/f0aff2688741af81/Dassehra.2018.Hindi.1080p.AMZN.WEB-DL.DDP.5.1.ESub-DUS.part2.rar
https://www.heroupload.us/4543bb6db3e70ed4/Dassehra.2018.Hindi.1080p.AMZN.WEB-DL.DDP.5.1.ESub-DUS.part3.rar
https://www.heroupload.us/2d14797e62a24647/Dassehra.2018.Hindi.1080p.AMZN.WEB-DL.DDP.5.1.ESub-DUS.part4.rar
https://www.heroupload.us/85bf4010bb1d3a2a/Dassehra.2018.Hindi.1080p.AMZN.WEB-DL.DDP.5.1.ESub-DUS.part5.rar




Buy Premium From My Links & Support Me

Tags: Dassehra

Comments:

Dear visitor, you went to the site as unregistered user
We encourage you to create an account or enter the site under your name

agario games

24 December 2018 07:58

Your article is very interesting. I think this article has a lot of information needed, looking forward to your new posts. Get permission to share: return man

Add comment

Name:*
E-Mail:*
Text:
Bold Italic Underline Strike | Align left Center Align right | Insert smilies Insert link URLInsert protected URL Select color | Add Hidden Text Insert Quote Convert selected text from selection to Cyrillic (Russian) alphabet Insert spoiler
Enter the code: *

Create an account

Advertising