» » Maari 2 (2018) Tamil - 1080p - PreDVDRip - x264 - MP3-MTR

Maari 2 (2018) Tamil - 1080p - PreDVDRip - x264 - MP3-MTR

Maari 2 (2018) Tamil - 1080p - PreDVDRip - x264 - MP3-MTR





Format                      : Matroska
Format version              : Version 4 / Version 2
File size                   : 2.51 GiB
Duration                    : 2 h 17 min
Overall bit rate            : 2 600 kb/s
Encoded date                : UTC 2018-12-22 09:49:19
Writing application         : mkvmerge v29.0.0 ('Like It Or Not') 32-bit
Writing library             : libebml v1.3.6 + libmatroska v1.4.9

Video
ID                          : 1
Format                      : AVC
Format/Info                 : Advanced Video Codec
Format profile              : High@L5.1
Format settings, CABAC      : Yes
Format settings, RefFrames  : 4 frames
Codec ID                    : V_MPEG4/ISO/AVC
Duration                    : 2 h 17 min
Bit rate                    : 2 499 kb/s
Width                       : 1 920 pixels
Height                      : 816 pixels
Display aspect ratio        : 2.35:1
Frame rate mode             : Constant
Frame rate                  : 25.000 FPS
Color space                 : YUV
Chroma subsampling          : 4:2:0
Bit depth                   : 8 bits
Scan type                   : Progressive
Bits/(Pixel*Frame)          : 0.064
Stream size                 : 2.41 GiB (96%)
Writing library             : x264 core 152 r2851 ba24899
Encoding settings           : cabac=1 / ref=2 / deblock=1:0:0 / analyse=0x3:0x113 / me=hex / subme=6 / psy=1 / psy_rd=1.00:0.00 / mixed_ref=1 / me_range=16 / chroma_me=1 / trellis=1 / 8x8dct=1 / cqm=0 / deadzone=21,11 / fast_pskip=1 / chroma_qp_offset=-2 / threads=25 / lookahead_threads=4 / sliced_threads=0 / nr=0 / decimate=1 / interlaced=0 / bluray_compat=0 / constrained_intra=0 / bframes=3 / b_pyramid=2 / b_adapt=1 / b_bias=0 / direct=1 / weightb=1 / open_gop=0 / weightp=1 / keyint=250 / keyint_min=25 / scenecut=40 / intra_refresh=0 / rc_lookahead=30 / rc=abr / mbtree=1 / bitrate=2499 / ratetol=1.0 / qcomp=0.60 / qpmin=0 / qpmax=69 / qpstep=4 / vbv_maxrate=300000 / vbv_bufsize=300000 / nal_hrd=none / filler=0 / ip_ratio=1.40 / aq=1:1.00
Language                    : English
Default                     : Yes
Forced                      : No

Audio
ID                          : 2
Format                      : MPEG Audio
Format version              : Version 2
Format profile              : Layer 3
Mode                        : Joint stereo
Mode extension              : MS Stereo
Codec ID                    : A_MPEG/L3
Codec ID/Hint               : MP3
Duration                    : 2 h 17 min
Bit rate mode               : Constant
Bit rate                    : 96.0 kb/s
Channel(s)                  : 2 channels
Sampling rate               : 22.05 kHz
Frame rate                  : 38.281 FPS (576 SPF)
Compression mode            : Lossy
Stream size                 : 94.7 MiB (4%)
Writing library             : LAME3.99.5
Language                    : English
Default                     : Yes
Forced                      : No


Maari 2 (2018) Tamil - 1080p - PreDVDRip - x264 - MP3-MTRMaari 2 (2018) Tamil - 1080p - PreDVDRip - x264 - MP3-MTRMaari 2 (2018) Tamil - 1080p - PreDVDRip - x264 - MP3-MTRMaari 2 (2018) Tamil - 1080p - PreDVDRip - x264 - MP3-MTRMaari 2 (2018) Tamil - 1080p - PreDVDRip - x264 - MP3-MTRMaari 2 (2018) Tamil - 1080p - PreDVDRip - x264 - MP3-MTRMaari 2 (2018) Tamil - 1080p - PreDVDRip - x264 - MP3-MTR
SINGLE DIRECT FAST LINKS

https://www.heroupload.us/e0380845ecd12bee/Maari.2.2018.Tamil.1080p.PreDVDRip.x264.MP3-MTR.mkv


700MB LINKS


https://www.heroupload.us/527a2f14f7ba0cdb/Maari.2.2018.Tamil.1080p.PreDVDRip.x264.MP3-MTR.part1.rar
https://www.heroupload.us/4af337633944cb60/Maari.2.2018.Tamil.1080p.PreDVDRip.x264.MP3-MTR.part2.rar
https://www.heroupload.us/8ec7f34c9514a5b8/Maari.2.2018.Tamil.1080p.PreDVDRip.x264.MP3-MTR.part3.rar
https://www.heroupload.us/80ff3d91b7574681/Maari.2.2018.Tamil.1080p.PreDVDRip.x264.MP3-MTR.part4.rar



Buy Premium From My Links & Support Me

Tags: Maari

Comments:

Dear visitor, you went to the site as unregistered user
We encourage you to create an account or enter the site under your name

Add comment

Name:*
E-Mail:*
Text:
Bold Italic Underline Strike | Align left Center Align right | Insert smilies Insert link URLInsert protected URL Select color | Add Hidden Text Insert Quote Convert selected text from selection to Cyrillic (Russian) alphabet Insert spoiler
Enter the code: *

Create an account

Advertising