» » Hello Guru Prema Kosame (2018) Telugu 700MB - 1CDRip - HDRip - XviD - MP3 - ESub-TMV

Hello Guru Prema Kosame (2018) Telugu 700MB - 1CDRip - HDRip - XviD - MP3 - ESub-TMV

Hello Guru Prema Kosame (2018) Telugu 700MB - 1CDRip - HDRip - XviD - MP3 - ESub-TMV





Format                      : AVI
Format/Info                 : Audio Video Interleave
File size                   : 705 MiB
Duration                    : 2 h 16 min
Overall bit rate            : 724 kb/s

Video
ID                          : 0
Format                      : MPEG-4 Visual
Format profile              : Simple@L3
Format settings, BVOP       : No
Format settings, QPel       : No
Format settings, GMC        : No warppoints
Format settings, Matrix     : Default (H.263)
Codec ID                    : XVID
Codec ID/Hint               : XviD
Duration                    : 2 h 16 min
Bit rate                    : 612 kb/s
Width                       : 720 pixels
Height                      : 306 pixels
Display aspect ratio        : 2.35:1
Frame rate                  : 24.000 FPS
Color space                 : YUV
Chroma subsampling          : 4:2:0
Bit depth                   : 8 bits
Scan type                   : Progressive
Compression mode            : Lossy
Bits/(Pixel*Frame)          : 0.116
Stream size                 : 596 MiB (84%)
Writing library             : XviD 1.2.1 (UTC 2008-12-04)

Audio
ID                          : 1
Format                      : MPEG Audio
Format version              : Version 1
Format profile              : Layer 3
Mode                        : Joint stereo
Mode extension              : MS Stereo
Codec ID                    : 55
Codec ID/Hint               : MP3
Duration                    : 2 h 16 min
Bit rate mode               : Constant
Bit rate                    : 96.0 kb/s
Channel(s)                  : 2 channels
Sampling rate               : 44.1 kHz
Compression mode            : Lossy
Stream size                 : 93.5 MiB (13%)
Alignment                   : Aligned on interleaves
Interleave, duration        : 26  ms (0.63 video frame)
Writing library             : LAME3.98.2



Hello Guru Prema Kosame (2018) Telugu 700MB - 1CDRip - HDRip - XviD - MP3 - ESub-TMVHello Guru Prema Kosame (2018) Telugu 700MB - 1CDRip - HDRip - XviD - MP3 - ESub-TMVHello Guru Prema Kosame (2018) Telugu 700MB - 1CDRip - HDRip - XviD - MP3 - ESub-TMV

SINGLE DIRECT FAST LINKS

https://www.heroupload.us/65eee4794630e36b/Hello.Guru.Prema.Kosame.2018.Telugu.HDRip.XviD.MP3.ESub-TMV.avi



https://filefloater.com/Vfh/Hello.Guru.Prema.Kosame.2018.Telugu.HDRip.XviD.MP3.ESub-TMV.avi




Buy Premium From My Links & Support Me

Tags: Hello

Comments:

Dear visitor, you went to the site as unregistered user
We encourage you to create an account or enter the site under your name

Add comment

Name:*
E-Mail:*
Text:
Bold Italic Underline Strike | Align left Center Align right | Insert smilies Insert link URLInsert protected URL Select color | Add Hidden Text Insert Quote Convert selected text from selection to Cyrillic (Russian) alphabet Insert spoiler
Enter the code: *

Create an account

Advertising