» » Kaasi (2018) Telugu Origial - 1080p - WEB-HD - AVC - AAC-TMV

Kaasi (2018) Telugu Origial - 1080p - WEB-HD - AVC - AAC-TMV

Kaasi (2018) Telugu Origial - 1080p - WEB-HD - AVC - AAC-TMV





Format                      : MPEG-4
Format profile              : Base Media
Codec ID                    : isom (isom/iso2/avc1/mp41)
File size                   : 3.03 GiB
Duration                    : 2 h 10 min
Overall bit rate            : 3 334 kb/s
Tagged date                 : UTC 2018-11-18 05:54:16
Writing application         : Lavf56.40.101
Cover                       : Yes

Video
ID                          : 1
Format                      : AVC
Format/Info                 : Advanced Video Codec
Format profile              : High@L4
Format settings, CABAC      : Yes
Format settings, RefFrames  : 3 frames
Codec ID                    : avc1
Codec ID/Info               : Advanced Video Coding
Duration                    : 2 h 10 min
Bit rate                    : 3 201 kb/s
Width                       : 1 920 pixels
Height                      : 1 080 pixels
Display aspect ratio        : 16:9
Frame rate mode             : Constant
Frame rate                  : 24.000 FPS
Color space                 : YUV
Chroma subsampling          : 4:2:0
Bit depth                   : 8 bits
Scan type                   : Progressive
Bits/(Pixel*Frame)          : 0.064
Stream size                 : 2.91 GiB (96%)
Color range                 : Limited
Color primaries             : BT.709
Transfer characteristics    : BT.709
Matrix coefficients         : BT.709

Audio
ID                          : 2
Format                      : AAC
Format/Info                 : Advanced Audio Codec
Format profile              : LC
Codec ID                    : 40
Duration                    : 2 h 10 min
Bit rate mode               : Constant
Bit rate                    : 128 kb/s
Channel(s)                  : 2 channels
Channel positions           : Front: L R
Sampling rate               : 44.1 kHz
Frame rate                  : 43.066 FPS (1024 SPF)
Compression mode            : Lossy
Stream size                 : 119 MiB (4%)
Language                    : English
Default                     : Yes
Alternate group             : 1



Kaasi (2018) Telugu Origial - 1080p - WEB-HD - AVC - AAC-TMVKaasi (2018) Telugu Origial - 1080p - WEB-HD - AVC - AAC-TMVKaasi (2018) Telugu Origial - 1080p - WEB-HD - AVC - AAC-TMVKaasi (2018) Telugu Origial - 1080p - WEB-HD - AVC - AAC-TMV

SINGLE DIRECT FAST LINKS
https://www.heroupload.us/4f3b7f8bc46bd460/Kaasi.2018.Telugu.Org.Ver.WEB-HD.1080p.AVC.AAC-TMV.mp4


https://filefloater.com/1ldF/Kaasi.2018.Telugu.Org.Ver.WEB-HD.1080p.AVC.AAC-TMV.mp4

1GB LINKS

https://www.heroupload.us/45a974a1a58c6d36/Kaasi.2018.Telugu.Org.Ver.WEB-HD.1080p.AVC.AAC-TMV.part1.rar
https://www.heroupload.us/6be688f0e83a827b/Kaasi.2018.Telugu.Org.Ver.WEB-HD.1080p.AVC.AAC-TMV.part2.rar
https://www.heroupload.us/2366fec3b4bd1e7a/Kaasi.2018.Telugu.Org.Ver.WEB-HD.1080p.AVC.AAC-TMV.part3.rar
https://www.heroupload.us/eda227ae384abfad/Kaasi.2018.Telugu.Org.Ver.WEB-HD.1080p.AVC.AAC-TMV.part4.rar



https://filefloater.com/1ldG/Kaasi.2018.Telugu.Org.Ver.WEB-HD.1080p.AVC.AAC-TMV.part1.rar
https://filefloater.com/1ldH/Kaasi.2018.Telugu.Org.Ver.WEB-HD.1080p.AVC.AAC-TMV.part2.rar
https://filefloater.com/1ldI/Kaasi.2018.Telugu.Org.Ver.WEB-HD.1080p.AVC.AAC-TMV.part3.rar
https://filefloater.com/1ldJ/Kaasi.2018.Telugu.Org.Ver.WEB-HD.1080p.AVC.AAC-TMV.part4.rar


Buy Premium From My Links & Support Me

Tags: Kaasi

Comments:

Dear visitor, you went to the site as unregistered user
We encourage you to create an account or enter the site under your name

Add comment

Name:*
E-Mail:*
Text:
Bold Italic Underline Strike | Align left Center Align right | Insert smilies Insert link URLInsert protected URL Select color | Add Hidden Text Insert Quote Convert selected text from selection to Cyrillic (Russian) alphabet Insert spoiler
Enter the code: *

Create an account

Advertising