» » Oru Kuttanadan Blog (2018) Malayalam - 720p - DVDRip - x264 - DD5.1 - ESubs-TMV

Oru Kuttanadan Blog (2018) Malayalam - 720p - DVDRip - x264 - DD5.1 - ESubs-TMV

Oru Kuttanadan Blog (2018) Malayalam - 720p - DVDRip - x264 - DD5.1 - ESubs-TMV





Format                      : Matroska
Format version              : Version 4 / Version 2
File size                   : 1.45 GiB
Duration                    : 2 h 16 min
Overall bit rate            : 1 517 kb/s
Movie name                  : www.TamilMV.biz
Encoded date                : UTC 2018-11-01 09:46:58
Writing application         : mkvmerge v7.1.0 ('Good Love') 32bit built on Jul 27 2014 12:59:18
Writing library             : libebml v1.3.0 + libmatroska v1.4.1

Video
ID                          : 1
Format                      : AVC
Format/Info                 : Advanced Video Codec
Format profile              : High@L5.1
Format settings, CABAC      : Yes
Format settings, RefFrames  : 4 frames
Codec ID                    : V_MPEG4/ISO/AVC
Duration                    : 2 h 16 min
Bit rate                    : 1 359 kb/s
Width                       : 1 280 pixels
Height                      : 544 pixels
Display aspect ratio        : 2.35:1
Frame rate mode             : Constant
Frame rate                  : 23.976 (24000/1001) FPS
Color space                 : YUV
Chroma subsampling          : 4:2:0
Bit depth                   : 8 bits
Scan type                   : Progressive
Bits/(Pixel*Frame)          : 0.081
Stream size                 : 1.29 GiB (89%)
Title                       : www.TamilMV.biz
Writing library             : x264 core 148 r2744 b97ae06
Encoding settings           : cabac=1 / ref=2 / deblock=1:0:0 / analyse=0x3:0x113 / me=hex / subme=6 / psy=1 / psy_rd=1.00:0.00 / mixed_ref=1 / me_range=16 / chroma_me=1 / trellis=1 / 8x8dct=1 / cqm=0 / deadzone=21,11 / fast_pskip=1 / chroma_qp_offset=-2 / threads=17 / lookahead_threads=2 / sliced_threads=0 / nr=0 / decimate=1 / interlaced=0 / bluray_compat=0 / constrained_intra=0 / bframes=3 / b_pyramid=2 / b_adapt=1 / b_bias=0 / direct=1 / weightb=1 / open_gop=0 / weightp=1 / keyint=240 / keyint_min=23 / scenecut=40 / intra_refresh=0 / rc_lookahead=30 / rc=abr / mbtree=1 / bitrate=1359 / ratetol=1.0 / qcomp=0.60 / qpmin=0 / qpmax=69 / qpstep=4 / vbv_maxrate=300000 / vbv_bufsize=300000 / nal_hrd=none / filler=0 / ip_ratio=1.40 / aq=1:1.00
Language                    : Malayalam
Default                     : Yes
Forced                      : No

Audio
ID                          : 2
Format                      : AC-3
Format/Info                 : Audio Coding 3
Format settings, Endianness : Big
Codec ID                    : A_AC3
Duration                    : 2 h 16 min
Bit rate mode               : Constant
Bit rate                    : 160 kb/s
Channel(s)                  : 6 channels
Channel positions           : Front: L C R, Side: L R, LFE
Sampling rate               : 44.1 kHz
Frame rate                  : 28.711 FPS (1536 SPF)
Bit depth                   : 16 bits
Compression mode            : Lossy
Stream size                 : 156 MiB (11%)
Title                       : www.TamilMV.biz
Language                    : Malayalam
Service kind                : Complete Main
Default                     : Yes
Forced                      : No

Text
ID                          : 3
Format                      : UTF-8
Codec ID                    : S_TEXT/UTF8
Codec ID/Info               : UTF-8 Plain Text
Duration                    : 2 h 13 min
Bit rate                    : 20 b/s
Count of elements           : 529
Stream size                 : 20.1 KiB (0%)
Title                       : www.TamilMV.biz
Language                    : English
Default                     : Yes
Forced                      : No



Oru Kuttanadan Blog (2018) Malayalam - 720p - DVDRip - x264 - DD5.1 - ESubs-TMVOru Kuttanadan Blog (2018) Malayalam - 720p - DVDRip - x264 - DD5.1 - ESubs-TMVOru Kuttanadan Blog (2018) Malayalam - 720p - DVDRip - x264 - DD5.1 - ESubs-TMVOru Kuttanadan Blog (2018) Malayalam - 720p - DVDRip - x264 - DD5.1 - ESubs-TMVOru Kuttanadan Blog (2018) Malayalam - 720p - DVDRip - x264 - DD5.1 - ESubs-TMV

SINGLE DIRECT FAST LINKS

http://www.heroupload.us/635defa2cbe977b7/Oru.Kuttanadan.Blog.2018.Malayalam.DVDRip.720p.x264.5.1.ESub-TMV.mkv



http://filefloater.com/1L7v/Oru.Kuttanadan.Blog.2018.Malayalam.DVDRip.720p.x264.5.1.ESub-TMV.mkv



Buy Premium From My Links & Support Me

Tags: Oru

Comments:

Dear visitor, you went to the site as unregistered user
We encourage you to create an account or enter the site under your name

Add comment

Name:*
E-Mail:*
Text:
Bold Italic Underline Strike | Align left Center Align right | Insert smilies Insert link URLInsert protected URL Select color | Add Hidden Text Insert Quote Convert selected text from selection to Cyrillic (Russian) alphabet Insert spoiler
Enter the code: *

Create an account

Advertising