» » Raatchasan (2018) Tamil - 1080p - WEB-HD - AVC - DD5.1 - ESubs-MTR

Raatchasan (2018) Tamil - 1080p - WEB-HD - AVC - DD5.1 - ESubs-MTR

Raatchasan (2018) Tamil - 1080p - WEB-HD - AVC - DD5.1 - ESubs-MTR




Format                      : MPEG-TS
File size                   : 9.34 GiB
Duration                    : 2 h 25 min
Overall bit rate mode       : Variable
Overall bit rate            : 9 183 kb/s
FileExtension_Invalid       : ts m2t m2s m4t m4s tmf ts tp trp ty

Video
ID                          : 481 (0x1E1)
Menu ID                     : 1 (0x1)
Format                      : AVC
Format/Info                 : Advanced Video Codec
Format profile              : High@L4
Format settings, CABAC      : Yes
Format settings, RefFrames  : 3 frames
Codec ID                    : 27
Duration                    : 2 h 25 min
Bit rate mode               : Constant
Bit rate                    : 8 500 kb/s
Maximum bit rate            : 8 970 kb/s
Width                       : 1 920 pixels
Height                      : 1 080 pixels
Display aspect ratio        : 16:9
Frame rate                  : 29.970 (30000/1001) FPS
Standard                    : PAL
Color space                 : YUV
Chroma subsampling          : 4:2:0
Bit depth                   : 8 bits
Scan type                   : Progressive
Bits/(Pixel*Frame)          : 0.137
Stream size                 : 8.41 GiB (90%)
Color range                 : Limited
Color primaries             : BT.709
Transfer characteristics    : BT.709
Matrix coefficients         : BT.709

Audio
ID                          : 482 (0x1E2)
Menu ID                     : 1 (0x1)
Format                      : AC-3
Format/Info                 : Audio Coding 3
Format settings, Endianness : Big
Codec ID                    : 129
Duration                    : 2 h 25 min
Bit rate mode               : Constant
Bit rate                    : 448 kb/s
Maximum bit rate            : 616 kb/s
Channel(s)                  : 6 channels
Channel positions           : Front: L C R, Side: L R, LFE
Sampling rate               : 48.0 kHz
Frame rate                  : 31.250 FPS (1536 SPF)
Bit depth                   : 16 bits
Compression mode            : Lossy
Stream size                 : 466 MiB (5%)
Service kind                : Complete Main

Menu
ID                          : 480 (0x1E0)
Menu ID                     : 1 (0x1)
Duration                    : 2 h 25 min
List                        : 481 (0x1E1) (AVC) / 482 (0x1E2) (AC-3)
Maximum bit rate            : 9586400



Raatchasan (2018) Tamil - 1080p - WEB-HD - AVC - DD5.1 - ESubs-MTRRaatchasan (2018) Tamil - 1080p - WEB-HD - AVC - DD5.1 - ESubs-MTRRaatchasan (2018) Tamil - 1080p - WEB-HD - AVC - DD5.1 - ESubs-MTRRaatchasan (2018) Tamil - 1080p - WEB-HD - AVC - DD5.1 - ESubs-MTRRaatchasan (2018) Tamil - 1080p - WEB-HD - AVC - DD5.1 - ESubs-MTR



SINGLE DIRECT FAST LINKS

http://www.heroupload.us/06715cad9d33c093/Raatchasan.2018.1080p.HD.AVC.MP4.DD_5.1.ESubs.Tamil-MTR.mp4


1GB LINKS

http://www.heroupload.us/4531286b2bfe212d/Raatchasan.2018.1080p.HD.AVC.MP4.DD_5.1.ESubs.Tamil-MTR.part01.rar
http://www.heroupload.us/d82e779a2fc214ea/Raatchasan.2018.1080p.HD.AVC.MP4.DD_5.1.ESubs.Tamil-MTR.part02.rar
http://www.heroupload.us/b10dcd39cd825157/Raatchasan.2018.1080p.HD.AVC.MP4.DD_5.1.ESubs.Tamil-MTR.part03.rar
http://www.heroupload.us/764ade97da01e5f4/Raatchasan.2018.1080p.HD.AVC.MP4.DD_5.1.ESubs.Tamil-MTR.part04.rar
http://www.heroupload.us/3fdeee39c1df96a1/Raatchasan.2018.1080p.HD.AVC.MP4.DD_5.1.ESubs.Tamil-MTR.part05.rar
http://www.heroupload.us/e12ad810f5f8aea6/Raatchasan.2018.1080p.HD.AVC.MP4.DD_5.1.ESubs.Tamil-MTR.part06.rar
http://www.heroupload.us/a0a5df6c8e6bfa27/Raatchasan.2018.1080p.HD.AVC.MP4.DD_5.1.ESubs.Tamil-MTR.part07.rar
http://www.heroupload.us/091363acd92d1325/Raatchasan.2018.1080p.HD.AVC.MP4.DD_5.1.ESubs.Tamil-MTR.part08.rar
http://www.heroupload.us/3f34ed37ad5d78cd/Raatchasan.2018.1080p.HD.AVC.MP4.DD_5.1.ESubs.Tamil-MTR.part09.rar
http://www.heroupload.us/1c311b55697ec6ef/Raatchasan.2018.1080p.HD.AVC.MP4.DD_5.1.ESubs.Tamil-MTR.part10.rar
http://www.heroupload.us/6bc3b9ded8f3615e/Raatchasan.2018.1080p.HD.AVC.MP4.DD_5.1.ESubs.Tamil-MTR.srt



http://filefloater.com/1L7D/Raatchasan.2018.1080p.HD.AVC.MP4.DD_5.1.ESubs.Tamil-MTR.part01.rar
http://filefloater.com/1L7E/Raatchasan.2018.1080p.HD.AVC.MP4.DD_5.1.ESubs.Tamil-MTR.part02.rar
http://filefloater.com/1l6L/Raatchasan.2018.1080p.HD.AVC.MP4.DD_5.1.ESubs.Tamil-MTR.part03.rar
http://filefloater.com/1L7G/Raatchasan.2018.1080p.HD.AVC.MP4.DD_5.1.ESubs.Tamil-MTR.part04.rar
http://filefloater.com/1L7H/Raatchasan.2018.1080p.HD.AVC.MP4.DD_5.1.ESubs.Tamil-MTR.part05.rar
http://filefloater.com/1L7I/Raatchasan.2018.1080p.HD.AVC.MP4.DD_5.1.ESubs.Tamil-MTR.part06.rar
http://filefloater.com/1l6P/Raatchasan.2018.1080p.HD.AVC.MP4.DD_5.1.ESubs.Tamil-MTR.part07.rar
http://filefloater.com/1l6Q/Raatchasan.2018.1080p.HD.AVC.MP4.DD_5.1.ESubs.Tamil-MTR.part08.rar
http://filefloater.com/1l6R/Raatchasan.2018.1080p.HD.AVC.MP4.DD_5.1.ESubs.Tamil-MTR.part09.rar
http://filefloater.com/1l6S/Raatchasan.2018.1080p.HD.AVC.MP4.DD_5.1.ESubs.Tamil-MTR.part10.rar
http://filefloater.com/1l6T/Raatchasan.2018.1080p.HD.AVC.MP4.DD_5.1.ESubs.Tamil-MTR.srt



Buy Premium From My Links & Support Me

Comments:

Dear visitor, you went to the site as unregistered user
We encourage you to create an account or enter the site under your name

Add comment

Name:*
E-Mail:*
Text:
Bold Italic Underline Strike | Align left Center Align right | Insert smilies Insert link URLInsert protected URL Select color | Add Hidden Text Insert Quote Convert selected text from selection to Cyrillic (Russian) alphabet Insert spoiler
Enter the code: *

Create an account

Advertising