» » Touch Chesi Chudu (2018) UNCUT 720p HDRip x264 Esub [Dual Audio][Hindi+Telugu]

Touch Chesi Chudu (2018) UNCUT 720p HDRip x264 Esub [Dual Audio][Hindi+Telugu]

Touch Chesi Chudu (2018) UNCUT 720p HDRip x264 Esub [Dual Audio][Hindi+Telugu]





General
Format : Matroska
Format version : Version 4
File size : 1.49 GiB
Duration : 2 h 21 min
Overall bit rate : 1 504 kb/s

Video
ID : 1
Format : AVC
Format/Info : Advanced Video Codec
Format profile : High@L3.1
Format settings : CABAC / 4 Ref Frames
Format settings, CABAC : Yes
Format settings, ReFrames : 4 frames
Codec ID : V_MPEG4/ISO/AVC
Duration : 2 h 21 min
Bit rate : 1 278 kb/s
Width : 1 280 pixels
Height : 536 pixels
Display aspect ratio : 2.40:1
Frame rate mode : Constant
Frame rate : 23.976 (23976/1000) FPS
Color space : YUV
Chroma subsampling : 4:2:0
Bit depth : 8 bits
Default : Yes
Forced : No

Audio #1
ID : 2
Format : AC-3
Format/Info : Audio Coding 3
Commercial name : Dolby Digital
Codec ID : A_AC3
Duration : 2 h 21 min
Bit rate mode : Constant
Bit rate : 160 kb/s
Channel(s) : 2 channels
Channel layout : L R
Sampling rate : 44.1 kHz
Frame rate : 28.711 FPS (1536 SPF)
Bit depth : 16 bits
Compression mode : Lossy
Delay relative to video : 77 ms
Stream size : 162 MiB (11%)
Language : Hindi
Service kind : Complete Main
Default : Yes
Forced : Yes

Audio #2
ID : 3
Format : MPEG Audio
Format version : Version 1
Format profile : Layer 3
Format settings : Joint stereo / MS Stereo
Codec ID : A_MPEG/L3
Codec ID/Hint : MP3
Duration : 2 h 21 min
Bit rate mode : Constant
Bit rate : 64.0 kb/s
Channel(s) : 2 channels
Sampling rate : 44.1 kHz
Frame rate : 38.281 FPS (1152 SPF)
Compression mode : Lossy
Stream size : 64.8 MiB (4%)
Title : DesireMovies@ADMIN
Writing library : LAME3.98
Language : Telugu
Default : No
Forced : No

Text #1
ID : 4
Format : UTF-8
Codec ID : S_TEXT/UTF8
Codec ID/Info : UTF-8 Plain Text
Duration : 2 h 18 min
Bit rate : 74 b/s
Count of elements : 2276
Stream size : 75.4 KiB (0%)
Language : English
Default : Yes
Forced : No

Text #2
ID : 5
Format : ASS
Codec ID : S_TEXT/ASS
Codec ID/Info : Advanced Sub Station Alpha
Bit rate : 0 b/s
Count of elements : 0
Compression mode : Lossless
Stream size : 0.00 Byte (0%)
Default : No
Forced : No 




Touch Chesi Chudu (2018) UNCUT 720p HDRip x264 Esub [Dual Audio][Hindi+Telugu]
Touch Chesi Chudu (2018) UNCUT 720p HDRip x264 Esub [Dual Audio][Hindi+Telugu]
Touch Chesi Chudu (2018) UNCUT 720p HDRip x264 Esub [Dual Audio][Hindi+Telugu]
Touch Chesi Chudu (2018) UNCUT 720p HDRip x264 Esub [Dual Audio][Hindi+Telugu]
Touch Chesi Chudu (2018) UNCUT 720p HDRip x264 Esub [Dual Audio][Hindi+Telugu]
Touch Chesi Chudu (2018) UNCUT 720p HDRip x264 Esub [Dual Audio][Hindi+Telugu]
Touch Chesi Chudu (2018) UNCUT 720p HDRip x264 Esub [Dual Audio][Hindi+Telugu]
Touch Chesi Chudu (2018) UNCUT 720p HDRip x264 Esub [Dual Audio][Hindi+Telugu]
Touch Chesi Chudu (2018) UNCUT 720p HDRip x264 Esub [Dual Audio][Hindi+Telugu]
Touch Chesi Chudu (2018) UNCUT 720p HDRip x264 Esub [Dual Audio][Hindi+Telugu]


SINGLE DIRECT FAST LINKS


http://www.heroupload.us/c5e61cde2508b715/Touch_Chesi_Chudu_(2018)_UNCUT_720p_HDRip_x264_Esub_[Dual_Audio]_DM.mkv



http://filefloater.com/1L3H/Touch_Chesi_Chudu_(2018)_UNCUT_720p_HDRip_x264_Esub_[Dual_Audio]_DM.mkv



Buy Premium From My Links & Support Me

Tags: Touch

Comments:

Dear visitor, you went to the site as unregistered user
We encourage you to create an account or enter the site under your name

AngelaSom

5 November 2018 13:28

Очень забавная догадка
Вы допускаете ошибку. Давайте обсудим это. Пишите мне в PM, поговорим.

дом из бруса

Add comment

Name:*
E-Mail:*
Text:
Bold Italic Underline Strike | Align left Center Align right | Insert smilies Insert link URLInsert protected URL Select color | Add Hidden Text Insert Quote Convert selected text from selection to Cyrillic (Russian) alphabet Insert spoiler
Enter the code: *

Create an account

Advertising