» » Sanju (2018) 720p - HDRip - x264 - DD5.1-Bollywooda2z

Sanju (2018) 720p - HDRip - x264 - DD5.1-Bollywooda2z

Sanju (2018) 720p - HDRip - x264 - DD5.1-Bollywooda2z



ormat                                  : Matroska
Format version                          : Version 4 / Version 2
File size                                : 1.50 GiB
Duration                                : 2 h 38 min
Overall bit rate                        : 1 349 kb/s

Video
ID                                      : 1
Format                                  : AVC
Format/Info                              : Advanced Video Codec
Duration                                : 2 h 38 min
Bit rate                                : 1 123 kb/s
Width                                    : 1 280 pixels
Height                                  : 544 pixels
Display aspect ratio                    : 2.35:1
Frame rate mode                          : Constant
Frame rate                              : 24.000 FPS
Color space                              : YUV
Chroma subsampling                      : 4:2:0
Bit depth                                : 8 bits
Scan type                                : Progressive
Bits/(Pixel*Frame)                      : 0.067
Stream size                              : 1.25 GiB (83%)

Audio
ID                                      : 2
Format                                  : AC-3
Format/Info                              : Audio Coding 3
Codec ID                                : A_AC3
Duration                                : 2 h 38 min
Bit rate mode                            : Constant
Bit rate                                : 224 kb/s
Channel(s)                              : 6 channels
Channel positions                        : Front: L C R, Side: L R, LFE
Sampling rate                            : 48.0 kHz
Frame rate                              : 31.250 FPS (1536 SPF)
Bit depth                                : 16 bits
Compression mode                        : Lossy
Stream size                              : 255 MiB (17%)
Language                                : Hindi
Service kind                            : Complete Main
Default                                  : Yes
Forced                                  : Yes

Text
ID                                      : 3
Format                                  : UTF-8
Codec ID                                : S_TEXT/UTF8
Codec ID/Info                            : UTF-8 Plain Text
Duration                                : 2 h 37 min
Bit rate                                : 51 b/s
Count of elements                        : 1857
Stream size                              : 59.3 KiB (0%)
Language                                : English
Default                                  : Yes
Forced                                  : Yes


Sanju (2018) 720p - HDRip - x264 - DD5.1-Bollywooda2zSanju (2018) 720p - HDRip - x264 - DD5.1-Bollywooda2zSanju (2018) 720p - HDRip - x264 - DD5.1-Bollywooda2zSanju (2018) 720p - HDRip - x264 - DD5.1-Bollywooda2zSanju (2018) 720p - HDRip - x264 - DD5.1-Bollywooda2zSanju (2018) 720p - HDRip - x264 - DD5.1-Bollywooda2zSanju (2018) 720p - HDRip - x264 - DD5.1-Bollywooda2zSanju (2018) 720p - HDRip - x264 - DD5.1-Bollywooda2z

SINGLE DIRECT FAST LINKS



http://www.heroupload.us/843a5aaf2a56096d/Sanju.2018.Hindi.720p.HDRIP.x264.DD5.1.ESUB-BollywoodA2z.mkv



http://filefloater.com/V00/Sanju.2018.Hindi.720p.HDRIP.x264.DD5.1.ESUB-BollywoodA2z.mkv


Buy Premium From My Links & Support Me

Tags: Sanju

Comments:

Dear visitor, you went to the site as unregistered user
We encourage you to create an account or enter the site under your name

Add comment

Name:*
E-Mail:*
Text:
Bold Italic Underline Strike | Align left Center Align right | Insert smilies Insert link URLInsert protected URL Select color | Add Hidden Text Insert Quote Convert selected text from selection to Cyrillic (Russian) alphabet Insert spoiler
Enter the code: *

Create an account

Advertising