» » Yevadu 3 (Agnyaathavaasi) (2018) Hindi - 720p - WEB-HD - AVC - AAC-GM Exclusive

Yevadu 3 (Agnyaathavaasi) (2018) Hindi - 720p - WEB-HD - AVC - AAC-GM Exclusive

Yevadu 3 (Agnyaathavaasi) (2018) Hindi - 720p - WEB-HD - AVC - AAC-GM Exclusive



Format                      : MPEG-4
Format profile              : Base Media / Version 2
Codec ID                    : mp42 (isom/mp42)
File size                   : 1.18 GiB
Duration                    : 2 h 7 min
Overall bit rate mode       : Variable
Overall bit rate            : 1 330 kb/s
Encoded date                : UTC 2018-10-17 20:28:58
Tagged date                 : UTC 2018-10-17 20:28:58
gsst                        : 0
gstd                        : 7621903

Video
ID                          : 1
Format                      : AVC
Format/Info                 : Advanced Video Codec
Format profile              : Main@L3.1
Format settings, CABAC      : Yes
Format settings, RefFrames  : 3 frames
Codec ID                    : avc1
Codec ID/Info               : Advanced Video Coding
Duration                    : 2 h 7 min
Bit rate                    : 1 198 kb/s
Width                       : 1 280 pixels
Height                      : 720 pixels
Display aspect ratio        : 16:9
Frame rate mode             : Constant
Frame rate                  : 25.000 FPS
Color space                 : YUV
Chroma subsampling          : 4:2:0
Bit depth                   : 8 bits
Scan type                   : Progressive
Bits/(Pixel*Frame)          : 0.052
Stream size                 : 1.06 GiB (90%)
Title                       : ISO Media file produced by Google Inc. Created on: 10/17/2018.
Encoded date                : UTC 2018-10-17 20:28:58
Tagged date                 : UTC 2018-10-17 20:28:58
Color range                 : Limited
Color primaries             : BT.709
Transfer characteristics    : BT.709
Matrix coefficients         : BT.709

Audio
ID                          : 2
Format                      : AAC
Format/Info                 : Advanced Audio Codec
Format profile              : LC
Codec ID                    : 40
Duration                    : 2 h 7 min
Source duration             : 2 h 7 min
Bit rate mode               : Variable
Bit rate                    : 128 kb/s
Channel(s)                  : 2 channels
Channel positions           : Front: L R
Sampling rate               : 44.1 kHz
Frame rate                  : 43.066 FPS (1024 SPF)
Compression mode            : Lossy
Stream size                 : 116 MiB (10%)
Source stream size          : 116 MiB (10%)
Title                       : ISO Media file produced by Google Inc. Created on: 10/17/2018.
Language                    : English
Encoded date                : UTC 2018-10-17 20:28:58
Tagged date                 : UTC 2018-10-17 20:28:58



Yevadu 3 (Agnyaathavaasi) (2018) Hindi - 720p - WEB-HD - AVC - AAC-GM ExclusiveYevadu 3 (Agnyaathavaasi) (2018) Hindi - 720p - WEB-HD - AVC - AAC-GM ExclusiveYevadu 3 (Agnyaathavaasi) (2018) Hindi - 720p - WEB-HD - AVC - AAC-GM ExclusiveYevadu 3 (Agnyaathavaasi) (2018) Hindi - 720p - WEB-HD - AVC - AAC-GM Exclusive

SINGLE DIRECT FAST LINKS

http://www.heroupload.us/7ddfe56c79b77cf7/Yevadu.3.Agnyaathavaasi.2018.Hindi.720p.WEB-HD.AVC.AAC-GM.mp4


http://filefloater.com/V1x/Yevadu.3.Agnyaathavaasi.2018.Hindi.720p.WEB-HD.AVC.AAC-GM.mp4



Buy Premium From My Links & Support Me

Tags: Yevadu

Comments:

Dear visitor, you went to the site as unregistered user
We encourage you to create an account or enter the site under your name

Add comment

Name:*
E-Mail:*
Text:
Bold Italic Underline Strike | Align left Center Align right | Insert smilies Insert link URLInsert protected URL Select color | Add Hidden Text Insert Quote Convert selected text from selection to Cyrillic (Russian) alphabet Insert spoiler
Enter the code: *

Create an account

Advertising