» » Dangerous Khiladi 6 (Doosukeltha) (2017) Hindi - 1080p - WEB-HD - AVC - AAC-GM Exclus

Dangerous Khiladi 6 (Doosukeltha) (2017) Hindi - 1080p - WEB-HD - AVC - AAC-GM Exclus

Dangerous Khiladi 6 (Doosukeltha) (2017) Hindi - 1080p - WEB-HD - AVC - AAC-GM Exclus





General
Format                      : MPEG-4
Format profile              : Base Media
Codec ID                    : isom (isom/iso2/avc1/mp41)
File size                   : 3.00 GiB
Duration                    : 2 h 14 min
Overall bit rate mode       : Variable
Overall bit rate            : 3 204 kb/s
Encoded date                : UTC 2017-11-27 09:27:15
Tagged date                 : UTC 2017-11-27 09:27:15

Video
ID                          : 1
Format                      : AVC
Format/Info                 : Advanced Video Codec
Format profile              : High@L4
Format settings, CABAC      : Yes
Format settings, RefFrames  : 2 frames
Codec ID                    : avc1
Codec ID/Info               : Advanced Video Coding
Duration                    : 2 h 14 min
Source duration             : 2 h 14 min
Bit rate                    : 3 075 kb/s
Width                       : 1 920 pixels
Height                      : 1 080 pixels
Display aspect ratio        : 16:9
Frame rate mode             : Constant
Frame rate                  : 25.000 FPS
Color space                 : YUV
Chroma subsampling          : 4:2:0
Bit depth                   : 8 bits
Scan type                   : Progressive
Bits/(Pixel*Frame)          : 0.059
Stream size                 : 2.88 GiB (96%)
Source stream size          : 2.88 GiB (96%)
Encoded date                : UTC 2017-11-27 09:27:15
Tagged date                 : UTC 2017-11-27 09:27:15
Color range                 : Limited
Color primaries             : BT.709
Transfer characteristics    : BT.709
Matrix coefficients         : BT.709

Audio
ID                          : 2
Format                      : AAC
Format/Info                 : Advanced Audio Codec
Format profile              : LC
Codec ID                    : 40
Duration                    : 2 h 14 min
Bit rate mode               : Variable
Bit rate                    : 126 kb/s
Channel(s)                  : 2 channels
Channel positions           : Front: L R
Sampling rate               : 44.1 kHz
Frame rate                  : 43.066 FPS (1024 SPF)
Compression mode            : Lossy
Stream size                 : 120 MiB (4%)
Default                     : Yes
Alternate group             : 1
Encoded date                : UTC 2017-11-27 09:29:33
Tagged date                 : UTC 2017-11-27 09:29:33


Dangerous Khiladi 6 (Doosukeltha) (2017) Hindi - 1080p - WEB-HD - AVC - AAC-GM Exclus
SINGLE DIRECT FAST LINKS

http://www.heroupload.com/a4fdce9647a26b8f/Dangerous.Khiladi.6.Doosukeltha.2017.1080p.WEB-HD-AVC.AAC-GM.Exclusive.MP4


700MB LINKS


http://www.heroupload.com/030a29b95742d07a/Dangerous.Khiladi.6.Doosukeltha.2017.1080p.WEB-HD-AVC.AAC-GM.Exclusive.part1.rar
http://www.heroupload.com/22a9cd8e74bfd563/Dangerous.Khiladi.6.Doosukeltha.2017.1080p.WEB-HD-AVC.AAC-GM.Exclusive.part2.rar
http://www.heroupload.com/4e8c7a45df9a3cf0/Dangerous.Khiladi.6.Doosukeltha.2017.1080p.WEB-HD-AVC.AAC-GM.Exclusive.part3.rar
http://www.heroupload.com/03df4ac5a2acf4ab/Dangerous.Khiladi.6.Doosukeltha.2017.1080p.WEB-HD-AVC.AAC-GM.Exclusive.part4.rar
http://www.heroupload.com/95dbb97447990389/Dangerous.Khiladi.6.Doosukeltha.2017.1080p.WEB-HD-AVC.AAC-GM.Exclusive.part5.rar



Tags: Dangerous

Comments:

Dear visitor, you went to the site as unregistered user
We encourage you to create an account or enter the site under your name

Add comment

Name:*
E-Mail:*
Text:
Bold Italic Underline Strike | Align left Center Align right | Insert smilies Insert link URLInsert protected URL Select color | Add Hidden Text Insert Quote Convert selected text from selection to Cyrillic (Russian) alphabet Insert spoiler
Enter the code: *

Create an account

Advertising