» » Anthaku Minchi (2018) Telugu - 1080p - Pre-DVDRip - x264 - MP3-MTR

Anthaku Minchi (2018) Telugu - 1080p - Pre-DVDRip - x264 - MP3-MTR

Anthaku Minchi (2018) Telugu - 1080p - Pre-DVDRip - x264 - MP3-MTR





Format                      : Matroska
Format version              : Version 4 / Version 2
File size                   : 2.48 GiB
Duration                    : 1 h 44 min
Overall bit rate            : 3 403 kb/s
Encoded date                : UTC 2018-08-25 19:14:56
Writing application         : mkvmerge v7.8.0 ('River Man') 64bit built on Mar 27 2015 16:31:37
Writing library             : libebml v1.3.1 + libmatroska v1.4.2

Video
ID                          : 1
Format                      : AVC
Format/Info                 : Advanced Video Codec
Format profile              : High@L4
Format settings, CABAC      : Yes
Format settings, RefFrames  : 4 frames
Codec ID                    : V_MPEG4/ISO/AVC
Duration                    : 1 h 44 min
Bit rate                    : 3 307 kb/s
Width                       : 1 920 pixels
Height                      : 816 pixels
Display aspect ratio        : 2.35:1
Frame rate mode             : Constant
Frame rate                  : 25.000 FPS
Color space                 : YUV
Chroma subsampling          : 4:2:0
Bit depth                   : 8 bits
Scan type                   : Progressive
Bits/(Pixel*Frame)          : 0.084
Stream size                 : 2.41 GiB (97%)
Writing library             : x264 core 152 r2851 ba24899
Encoding settings           : cabac=1 / ref=3 / deblock=1:0:0 / analyse=0x3:0x113 / me=hex / subme=7 / psy=1 / psy_rd=1.00:0.00 / mixed_ref=1 / me_range=16 / chroma_me=1 / trellis=1 / 8x8dct=1 / cqm=0 / deadzone=21,11 / fast_pskip=1 / chroma_qp_offset=-2 / threads=25 / lookahead_threads=4 / sliced_threads=0 / nr=0 / decimate=1 / interlaced=0 / bluray_compat=0 / constrained_intra=0 / bframes=3 / b_pyramid=2 / b_adapt=1 / b_bias=0 / direct=1 / weightb=1 / open_gop=0 / weightp=2 / keyint=250 / keyint_min=25 / scenecut=40 / intra_refresh=0 / rc_lookahead=40 / rc=abr / mbtree=1 / bitrate=3307 / ratetol=1.0 / qcomp=0.60 / qpmin=0 / qpmax=69 / qpstep=4 / ip_ratio=1.40 / aq=1:1.00
Language                    : English
Default                     : Yes
Forced                      : No

Audio
ID                          : 2
Format                      : MPEG Audio
Format version              : Version 2
Format profile              : Layer 3
Mode                        : Joint stereo
Mode extension              : MS Stereo
Codec ID                    : A_MPEG/L3
Codec ID/Hint               : MP3
Duration                    : 1 h 44 min
Bit rate mode               : Constant
Bit rate                    : 96.0 kb/s
Channel(s)                  : 2 channels
Sampling rate               : 22.05 kHz
Frame rate                  : 38.281 FPS (576 SPF)
Compression mode            : Lossy
Stream size                 : 71.6 MiB (3%)
Writing library             : LAME3.99.5
Language                    : English
Default                     : Yes
Forced                      : No



Anthaku Minchi (2018) Telugu - 1080p - Pre-DVDRip - x264 - MP3-MTRAnthaku Minchi (2018) Telugu - 1080p - Pre-DVDRip - x264 - MP3-MTRAnthaku Minchi (2018) Telugu - 1080p - Pre-DVDRip - x264 - MP3-MTRAnthaku Minchi (2018) Telugu - 1080p - Pre-DVDRip - x264 - MP3-MTR

SINGLE DIRECT FAST LINKS
http://www.heroupload.us/41d5c871024fe28d/Anthaku.Minchi.2018.Telugu.1080p.Pre-DVDRip.x264-MTR.mkv


http://filefloater.com/Uqr/Anthaku.Minchi.2018.Telugu.1080p.Pre-DVDRip.x264-MTR.mkv

700MB LINKS

http://www.heroupload.us/71412c4fe83e7d5c/Anthaku.Minchi.2018.Telugu.1080p.Pre-DVDRip.x264-MTR.part1.rar
http://www.heroupload.us/3a2364274dfaf3a5/Anthaku.Minchi.2018.Telugu.1080p.Pre-DVDRip.x264-MTR.part2.rar
http://www.heroupload.us/42c46821f4eba7bf/Anthaku.Minchi.2018.Telugu.1080p.Pre-DVDRip.x264-MTR.part3.rar
http://www.heroupload.us/746b287df71b9c4a/Anthaku.Minchi.2018.Telugu.1080p.Pre-DVDRip.x264-MTR.part4.rar



http://filefloater.com/Uqs/Anthaku.Minchi.2018.Telugu.1080p.Pre-DVDRip.x264-MTR.part1.rar
http://filefloater.com/Uqt/Anthaku.Minchi.2018.Telugu.1080p.Pre-DVDRip.x264-MTR.part2.rar
http://filefloater.com/Uqu/Anthaku.Minchi.2018.Telugu.1080p.Pre-DVDRip.x264-MTR.part3.rar
http://filefloater.com/Uqv/Anthaku.Minchi.2018.Telugu.1080p.Pre-DVDRip.x264-MTR.part4.rar


Buy Premium From My Links & Support Me

Tags: Anthaku

Comments:

Dear visitor, you went to the site as unregistered user
We encourage you to create an account or enter the site under your name

Add comment

Name:*
E-Mail:*
Text:
Bold Italic Underline Strike | Align left Center Align right | Insert smilies Insert link URLInsert protected URL Select color | Add Hidden Text Insert Quote Convert selected text from selection to Cyrillic (Russian) alphabet Insert spoiler
Enter the code: *

Create an account

Advertising