» » Chennaiyil Oru Naal 2 (2017) Tamil - 720p - WEB-HD - AVC - AAC 5.1 - ESubs-MTR

Chennaiyil Oru Naal 2 (2017) Tamil - 720p - WEB-HD - AVC - AAC 5.1 - ESubs-MTR

Chennaiyil Oru Naal 2 (2017) Tamil - 720p - WEB-HD - AVC - AAC 5.1 - ESubs-MTR


Chennaiyil Oru Naal 2 (2017) Tamil - 720p - WEB-HD - AVC - AAC 5.1 - ESubs-MTR : 1.51 GiB




[CENTER]

General
Format                      : MPEG-4
Format profile              : Base Media
Codec ID                    : isom (isom)
File size                   : 1.51 GiB
Duration                    : 1 h 35 min
Overall bit rate mode       : Variable
Overall bit rate            : 2 254 kb/s
Encoded date                : UTC 2017-11-16 18:48:37
Tagged date                 : UTC 2017-11-16 18:48:37
Writing application         : MkvToMp4 [www.mkvtomp4.ru] version 0.224 (x64)

Video
ID                          : 1
Format                      : AVC
Format/Info                 : Advanced Video Codec
Format profile              : [email protected]
Format settings, CABAC      : Yes
Format settings, RefFrames  : 4 frames
Codec ID                    : avc1
Codec ID/Info               : Advanced Video Coding
Duration                    : 1 h 35 min
Bit rate                    : 1 995 kb/s
Maximum bit rate            : 5 979 kb/s
Width                       : 1 280 pixels
Height                      : 720 pixels
Display aspect ratio        : 16:9
Frame rate mode             : Constant
Frame rate                  : 25.000 FPS
Color space                 : YUV
Chroma subsampling          : 4:2:0
Bit depth                   : 8 bits
Scan type                   : Progressive
Bits/(Pixel*Frame)          : 0.087
Stream size                 : 1.34 GiB (89%)
Writing library             : Zencoder Video Encoding System
Language                    : English
Tagged date                 : UTC 2017-11-16 18:48:43
Color range                 : Limited
Color primaries             : BT.709
Transfer characteristics    : BT.709
Matrix coefficients         : BT.709

Audio
ID                          : 2
Format                      : AAC
Format/Info                 : Advanced Audio Codec
Format profile              : LC
Codec ID                    : 40
Duration                    : 1 h 35 min
Bit rate mode               : Variable
Bit rate                    : 255 kb/s
Maximum bit rate            : 298 kb/s
Channel(s)                  : 2 channels
Channel positions           : Front: L R
Sampling rate               : 48.0 kHz
Frame rate                  : 46.875 FPS (1024 SPF)
Compression mode            : Lossy
Stream size                 : 175 MiB (11%)
Language                    : English
Default                     : Yes
Alternate group             : 1
Encoded date                : UTC 2017-11-16 18:48:40
Tagged date                 : UTC 2017-11-16 18:48:43


Chennaiyil Oru Naal 2 (2017) Tamil - 720p - WEB-HD - AVC - AAC 5.1 - ESubs-MTRChennaiyil Oru Naal 2 (2017) Tamil - 720p - WEB-HD - AVC - AAC 5.1 - ESubs-MTRChennaiyil Oru Naal 2 (2017) Tamil - 720p - WEB-HD - AVC - AAC 5.1 - ESubs-MTR

SINGLE DIRECT FAST LINKS

http://www.heroupload.com/707f0e7d02e341c2/Chennaiyil.Oru.Naal.2.2017.Tami._v2.720p.HD.AVC.MP4.5.1.ESubs-MTR.mp4
http://www.heroupload.com/43c31181c81626d2/Chennaiyil.Oru.Naal.2.2017.Tami._v2.720p.HD.AVC.MP4.5.1.ESubs-MTR.srt



http://filefloater.com/432/Chennaiyil.Oru.Naal.2.2017.Tami._v2.720p.HD.AVC.MP4.5.1.ESubs-MTR.mp4
http://filefloater.com/433/Chennaiyil.Oru.Naal.2.2017.Tami._v2.720p.HD.AVC.MP4.5.1.ESubs-MTR.srt




Comments:

Dear visitor, you went to the site as unregistered user
We encourage you to create an account or enter the site under your name

Add comment

Name:*
E-Mail:*
Text:
Bold Italic Underline Strike | Align left Center Align right | Insert smilies Insert link URLInsert protected URL Select color | Add Hidden Text Insert Quote Convert selected text from selection to Cyrillic (Russian) alphabet Insert spoiler
Enter the code: *

Create an account

Advertising