» » Deadpool 2 (2018) 720p HDRip x264 [Multi Audio][Hindi+Telugu+Tamil+English]

Deadpool 2 (2018) 720p HDRip x264 [Multi Audio][Hindi+Telugu+Tamil+English]

Deadpool 2 (2018) 720p HDRip x264 [Multi Audio][Hindi+Telugu+Tamil+English]




ormat                      : Matroska
Format version              : Version 4 / Version 2
File size                   : 1.14 GiB
Duration                    : 1 h 59 min
Overall bit rate mode       : Variable
Overall bit rate            : 1 373 kb/s
Encoded date                : UTC 2018-07-26 02:43:17
Writing application         : mkvmerge v7.1.0 ('Good Love') 32bit built on Jul 27 2014 12:59:18
Writing library             : libebml v1.3.0 + libmatroska v1.4.1

Video
ID                          : 1
Format                      : AVC
Format/Info                 : Advanced Video Codec
Format profile              : [email protected]
Format settings, CABAC      : Yes
Format settings, RefFrames  : 5 frames
Codec ID                    : V_MPEG4/ISO/AVC
Duration                    : 1 h 59 min
Bit rate                    : 1 020 kb/s
Width                       : 1 280 pixels
Height                      : 568 pixels
Display aspect ratio        : 2.25:1
Frame rate mode             : Constant
Frame rate                  : 14.412 FPS
Color space                 : YUV
Chroma subsampling          : 4:2:0
Bit depth                   : 8 bits
Scan type                   : Progressive
Bits/(Pixel*Frame)          : 0.097
Stream size                 : 868 MiB (74%)
Writing library             : x264 core 148 r2744 b97ae06
Encoding settings           : cabac=1 / ref=5 / deblock=1:0:0 / analyse=0x3:0x113 / me=hex / subme=8 / psy=1 / psy_rd=1.00:0.00 / mixed_ref=1 / me_range=16 / chroma_me=1 / trellis=2 / 8x8dct=1 / cqm=0 / deadzone=21,11 / fast_pskip=1 / chroma_qp_offset=-2 / threads=18 / lookahead_threads=3 / sliced_threads=0 / nr=0 / decimate=1 / interlaced=0 / bluray_compat=0 / constrained_intra=0 / bframes=3 / b_pyramid=2 / b_adapt=1 / b_bias=0 / direct=3 / weightb=1 / open_gop=0 / weightp=2 / keyint=144 / keyint_min=14 / scenecut=40 / intra_refresh=0 / rc_lookahead=50 / rc=2pass / mbtree=1 / bitrate=1020 / ratetol=1.0 / qcomp=0.60 / qpmin=0 / qpmax=69 / qpstep=4 / cplxblur=20.0 / qblur=0.5 / vbv_maxrate=300000 / vbv_bufsize=300000 / nal_hrd=none / filler=0 / ip_ratio=1.40 / aq=1:1.00
Language                    : English
Default                     : Yes
Forced                      : No

Audio #1
ID                          : 2
Format                      : MPEG Audio
Format version              : Version 1
Format profile              : Layer 3
Mode                        : Joint stereo
Mode extension              : MS Stereo
Codec ID                    : A_MPEG/L3
Codec ID/Hint               : MP3
Duration                    : 1 h 59 min
Bit rate mode               : Variable
Bit rate                    : 85.1 kb/s
Nominal bit rate            : 96.0 kb/s
Channel(s)                  : 2 channels
Sampling rate               : 44.1 kHz
Frame rate                  : 38.281 FPS (1152 SPF)
Compression mode            : Lossy
Stream size                 : 72.5 MiB (6%)
Writing library             : LAME3.99r
Encoding settings           : -m j -V 4 -q 3 -lowpass 15.1 --abr 96
Language                    : Telugu
Default                     : Yes
Forced                      : No

Audio #2
ID                          : 3
Format                      : MPEG Audio
Format version              : Version 1
Format profile              : Layer 3
Mode                        : Joint stereo
Mode extension              : MS Stereo
Codec ID                    : A_MPEG/L3
Codec ID/Hint               : MP3
Duration                    : 1 h 59 min
Bit rate mode               : Variable
Bit rate                    : 86.1 kb/s
Nominal bit rate            : 96.0 kb/s
Channel(s)                  : 2 channels
Sampling rate               : 44.1 kHz
Frame rate                  : 38.281 FPS (1152 SPF)
Compression mode            : Lossy
Stream size                 : 73.3 MiB (6%)
Writing library             : LAME3.99r
Encoding settings           : -m j -V 4 -q 3 -lowpass 15.1 --abr 96
Language                    : Tamil
Default                     : No
Forced                      : No

Audio #3
ID                          : 4
Format                      : MPEG Audio
Format version              : Version 1
Format profile              : Layer 3
Mode                        : Joint stereo
Mode extension              : MS Stereo
Codec ID                    : A_MPEG/L3
Codec ID/Hint               : MP3
Duration                    : 1 h 59 min
Bit rate mode               : Variable
Bit rate                    : 86.7 kb/s
Nominal bit rate            : 96.0 kb/s
Channel(s)                  : 2 channels
Sampling rate               : 44.1 kHz
Frame rate                  : 38.281 FPS (1152 SPF)
Compression mode            : Lossy
Stream size                 : 73.8 MiB (6%)
Writing library             : LAME3.99r
Encoding settings           : -m j -V 4 -q 3 -lowpass 15.1 --abr 96
Language                    : Hindi
Default                     : No
Forced                      : No

Audio #4
ID                          : 5
Format                      : AAC
Format/Info                 : Advanced Audio Codec
Format profile              : LC
Codec ID                    : A_AAC
Duration                    : 1 h 59 min
Bit rate                    : 91.3 kb/s
Channel(s)                  : 2 channels
Channel positions           : Front: L R
Sampling rate               : 44.1 kHz
Frame rate                  : 43.066 FPS (1024 SPF)
Compression mode            : Lossy
Stream size                 : 77.7 MiB (7%)
Language                    : English
Default                     : No
Forced                      : No



Deadpool 2 (2018) 720p HDRip x264 [Multi Audio][Hindi+Telugu+Tamil+English]Deadpool 2 (2018) 720p HDRip x264 [Multi Audio][Hindi+Telugu+Tamil+English]Deadpool 2 (2018) 720p HDRip x264 [Multi Audio][Hindi+Telugu+Tamil+English]Deadpool 2 (2018) 720p HDRip x264 [Multi Audio][Hindi+Telugu+Tamil+English]Deadpool 2 (2018) 720p HDRip x264 [Multi Audio][Hindi+Telugu+Tamil+English]Deadpool 2 (2018) 720p HDRip x264 [Multi Audio][Hindi+Telugu+Tamil+English]

SINGLE DIRECT FAST LINKS

http://www.heroupload.us/fef0d79868b5c67c/Deadpool.2.2018.HDRip.720p.x264.Line.Telugu+Tamil+Hindi+English.mkv



http://filefloater.com/29T6/Deadpool.2.2018.HDRip.720p.x264.Line.Telugu+Tamil+Hindi+English.mkv



Buy Premium From My Links & Support Me

Tags: Deadpool

Comments:

Dear visitor, you went to the site as unregistered user
We encourage you to create an account or enter the site under your name

paco3can

26 July 2018 18:50 User Offline


DavidCed

16 May 2019 22:06

prescription drugs online without doctor
<a href="https://bartelldrugsy.com/#">bartell drugs seattle</a>
canadian pharmacies shipping to usa
bartells drugstore
Trusted Online Pharmacies

Williamnet

21 May 2019 05:36

real viagra without a doctor prescription
<a href="http://viagratyrif.com/#">viagra without doctor prescription</a>
viagra without doctor prescription
viagra without doctor prescription
juzgados del condado de polk
<a href="http://viagranbdnr.com/#">generic viagra without a doctor prescription</a>
viagra prescriptions over internet
viagra without doctor prescription judpharmacy
viagra no prescription

RonaldFoumn

2 June 2019 07:46

viagra doctor prescription
<a href="http://prayforeasterncanada.com/#">viagra without doctor prescription</a>
online prescription
viagra without doctor prescription judpharmacy
levitra without a doctor prescription
<a href="http://athensapartmentsonline.com/#">viagra without doctor prescription judpharmacy</a>
online doctors
viagra without doctor prescription judpharmacy
online doctors that provide prescriptions

Williamkip

9 June 2019 09:50

online mobile casino in south africa
<a href="http://online-casino.party/#">online casino slots no down load</a>
best new casinos
online casino blackjack best
online casino tropez betrug
<a href="http://online-slots.party/#">casino live dealer online</a>
casino online real money roulette
best paying online casino
legit online casino canadaonline casino new player bonus
<a href="http://onlineroulette.space/#">olympic casino play online</a>
online mobile casino uk
online casino bonuses
online casino slots play

Add comment

Name:*
E-Mail:*
Text:
Bold Italic Underline Strike | Align left Center Align right | Insert smilies Insert link URLInsert protected URL Select color | Add Hidden Text Insert Quote Convert selected text from selection to Cyrillic (Russian) alphabet Insert spoiler
Enter the code: *

Create an account

Advertising