» » Golmaal Again (2017) 720p - BluRay - x264 - DD5.1-NhaNc3

Golmaal Again (2017) 720p - BluRay - x264 - DD5.1-NhaNc3

Golmaal Again (2017) 720p - BluRay - x264 - DD5.1-NhaNc3



Format                      : Matroska
Format version              : Version 2
File size                   : 3.06 GiB
Duration                    : 2 h 31 min
Overall bit rate            : 2 898 kb/s
Encoded date                : UTC 2018-03-12 17:59:08
Writing application         : mkvmerge v4.9.1 ('Ich will') built on Jul 11 2011 23:53:15
Writing library             : libebml v1.2.1 + libmatroska v1.1.1

Video
ID                          : 1
Format                      : AVC
Format/Info                 : Advanced Video Codec
Format profile              : [email protected]
Format settings, CABAC      : Yes
Format settings, RefFrames  : 8 frames
Codec ID                    : V_MPEG4/ISO/AVC
Duration                    : 2 h 31 min
Bit rate                    : 2 483 kb/s
Width                       : 1 280 pixels
Height                      : 532 pixels
Display aspect ratio        : 2.40:1
Frame rate mode             : Constant
Frame rate                  : 24.000 FPS
Color space                 : YUV
Chroma subsampling          : 4:2:0
Bit depth                   : 8 bits
Scan type                   : Progressive
Bits/(Pixel*Frame)          : 0.152
Stream size                 : 2.59 GiB (85%)
Writing library             : x264 core 148 r2638 7599210
Encoding settings           : cabac=1 / ref=8 / deblock=1:0:0 / analyse=0x3:0x113 / me=umh / subme=9 / psy=1 / psy_rd=1.00:0.00 / mixed_ref=1 / me_range=16 / chroma_me=1 / trellis=1 / 8x8dct=1 / cqm=0 / deadzone=21,11 / fast_pskip=1 / chroma_qp_offset=-2 / threads=8 / lookahead_threads=1 / sliced_threads=0 / nr=0 / decimate=1 / interlaced=0 / bluray_compat=0 / constrained_intra=0 / bframes=5 / b_pyramid=2 / b_adapt=1 / b_bias=0 / direct=1 / weightb=1 / open_gop=0 / weightp=2 / keyint=250 / keyint_min=24 / scenecut=40 / intra_refresh=0 / rc_lookahead=40 / rc=2pass / mbtree=1 / bitrate=2483 / ratetol=1.0 / qcomp=0.60 / qpmin=0 / qpmax=69 / qpstep=4 / cplxblur=20.0 / qblur=0.5 / vbv_maxrate=20000 / vbv_bufsize=15000 / nal_hrd=none / filler=0 / ip_ratio=1.40 / aq=1:1.00
Language                    : English
Default                     : Yes
Forced                      : No
Color range                 : Limited
Color primaries             : BT.709
Transfer characteristics    : BT.709
Matrix coefficients         : BT.709

Audio
ID                          : 2
Format                      : AC-3
Format/Info                 : Audio Coding 3
Format settings, Endianness : Big
Codec ID                    : A_AC3
Duration                    : 2 h 31 min
Bit rate mode               : Constant
Bit rate                    : 384 kb/s
Channel(s)                  : 2 channels
Channel positions           : Front: L R
Sampling rate               : 48.0 kHz
Frame rate                  : 31.250 FPS (1536 SPF)
Bit depth                   : 16 bits
Compression mode            : Lossy
Stream size                 : 415 MiB (13%)
Language                    : English
Service kind                : Complete Main
Default                     : Yes
Forced                      : Yes

Text
ID                          : 3
Format                      : PGS
Codec ID                    : S_HDMV/PGS
Codec ID/Info               : Picture based subtitle format used on BDs/HD-DVDs
Language                    : English
Default                     : Yes
Forced                      : No
Statistics Tags Issue       : mkvmerge v13.0.0 ('The Juggler') 64bit 2017-12-16 09:15:10 / mkvmerge v4.9.1 ('Ich will') built on Jul 11 2011 23:53:15 2018-03-12 17:59:08
FromStats_BitRate           : 30681
FromStats_Duration          : 02:25:43.083000000
FromStats_FrameCount        : 4117
FromStats_StreamSize        : 33531686

Menu
00:00:00.000                : en:Chapter 01
00:01:43.625                : en:Chapter 02
00:04:31.833                : en:Chapter 03
00:08:14.000                : en:Chapter 04
00:12:31.416                : en:Chapter 05
00:24:43.583                : en:Chapter 06
00:37:00.208                : en:Chapter 07
00:41:50.000                : en:Chapter 08
00:46:28.000                : en:Chapter 09
00:58:47.250                : en:Chapter 10
01:01:19.750                : en:Chapter 11
01:10:08.958                : en:Chapter 12
01:17:27.250                : en:Chapter 13
01:20:28.958                : en:Chapter 14
01:37:59.041                : en:Chapter 15
01:40:08.000                : en:Chapter 16
01:41:47.208                : en:Chapter 17
01:47:48.000                : en:Chapter 18
02:18:16.458                : en:Chapter 19
02:28:05.833                : en:Chapter 20



Golmaal Again (2017) 720p - BluRay - x264 - DD5.1-NhaNc3
SINGLE DIRECT FAST LINKS

http://www.heroupload.us/6233522422130191/Golmaal.Again.2017.720p.BluRay.nHD.x264-NhaNc3.mkv



http://filefloater.com/2zPB/Golmaal.Again.2017.720p.BluRay.nHD.x264-NhaNc3.mkv




Buy Premium From My Links & Support Me

Tags: Golmaal

Comments:

Dear visitor, you went to the site as unregistered user
We encourage you to create an account or enter the site under your name

Add comment

Name:*
E-Mail:*
Text:
Bold Italic Underline Strike | Align left Center Align right | Insert smilies Insert link URLInsert protected URL Select color | Add Hidden Text Insert Quote Convert selected text from selection to Cyrillic (Russian) alphabet Insert spoiler
Enter the code: *

Create an account

Advertising