» » Adanga Maru (2018) 720p UNCUT HDRip x264 ESubs [Dual Audio] [Hindi+Tamil] BHD

Adanga Maru (2018) 720p UNCUT HDRip x264 ESubs [Dual Audio] [Hindi+Tamil] BHD

Adanga Maru (2018) 720p UNCUT HDRip x264 ESubs [Dual Audio] [Hindi+Tamil] BHD





Video
ID : 1
Format : AVC
Format/Info : Advanced Video Codec
Format profile : [email protected]
Format settings : CABAC / 8 Ref Frames
Format settings, CABAC : Yes
Format settings, Reference frames : 8 frames
Codec ID : V_MPEG4/ISO/AVC
Duration : 2 h 24 min
Bit rate : 1 284 kb/s
Width : 1 280 pixels
Height : 536 pixels
Display aspect ratio : 2.40:1
Frame rate mode : Constant
Frame rate : 29.970 (30000/1001) FPS
Color space : YUV
Chroma subsampling : 4:2:0
Bit depth : 8 bits
Scan type : Progressive
Bits/(Pixel*Frame) : 0.062
Stream size : 1.29 GiB (78%)
Writing library : x264  
Default : Yes
Forced : No

Audio #1
ID : 2
Format : AC-3
Format/Info : Audio Coding 3
Commercial name : Dolby Digital
Codec ID : A_AC3
Duration : 2 h 24 min
Bit rate mode : Constant
Bit rate : 192 kb/s
Channel(s) : 2 channels
Channel layout : L R
Sampling rate : 48.0 kHz
Frame rate : 31.250 FPS (1536 SPF)
Bit depth : 16 bits
Compression mode : Lossy
Stream size : 198 MiB (12%)
Language : Hindi
Service kind : Complete Main
Default : Yes
Forced : Yes

Audio #2
ID : 3
Format : AC-3
Format/Info : Audio Coding 3
Commercial name : Dolby Digital
Codec ID : A_AC3
Duration : 2 h 24 min
Bit rate mode : Constant
Bit rate : 160 kb/s
Channel(s) : 6 channels
Channel layout : L R C LFE Ls Rs
Sampling rate : 44.1 kHz
Frame rate : 28.711 FPS (1536 SPF)
Bit depth : 16 bits
Compression mode : Lossy
Stream size : 165 MiB (10%)
Language : Tamil
Service kind : Complete Main
Default : No
Forced : No

Text
ID : 4
Format : UTF-8
Codec ID : S_TEXT/UTF8
Codec ID/Info : UTF-8 Plain Text
Duration : 2 h 17 min
Bit rate : 65 b/s
Count of elements : 2327
Stream size : 66.4 KiB (0%)
Language : English
Default : No
Forced : No


Adanga Maru (2018) 720p UNCUT HDRip x264 ESubs [Dual Audio] [Hindi+Tamil] BHD
Adanga Maru (2018) 720p UNCUT HDRip x264 ESubs [Dual Audio] [Hindi+Tamil] BHD
Adanga Maru (2018) 720p UNCUT HDRip x264 ESubs [Dual Audio] [Hindi+Tamil] BHD
Adanga Maru (2018) 720p UNCUT HDRip x264 ESubs [Dual Audio] [Hindi+Tamil] BHD
Adanga Maru (2018) 720p UNCUT HDRip x264 ESubs [Dual Audio] [Hindi+Tamil] BHD
Adanga Maru (2018) 720p UNCUT HDRip x264 ESubs [Dual Audio] [Hindi+Tamil] BHD
Adanga Maru (2018) 720p UNCUT HDRip x264 ESubs [Dual Audio] [Hindi+Tamil] BHD
Adanga Maru (2018) 720p UNCUT HDRip x264 ESubs [Dual Audio] [Hindi+Tamil] BHD
Adanga Maru (2018) 720p UNCUT HDRip x264 ESubs [Dual Audio] [Hindi+Tamil] BHD
Adanga Maru (2018) 720p UNCUT HDRip x264 ESubs [Dual Audio] [Hindi+Tamil] BHD
Adanga Maru (2018) 720p UNCUT HDRip x264 ESubs [Dual Audio] [Hindi+Tamil] BHD

SINGLE DIRECT FAST LINKS


https://www.heroupload.com/8f1b81decf99f7a5/Adanga.Maru.2018.720p.UNCUT.HDRip.x264.ESubs.Dual.Audio.Hindi.DD2.0+Tamil.DD5.1-BHD.mkv



Tags: Adanga

Comments:

Dear visitor, you went to the site as unregistered user
We encourage you to create an account or enter the site under your name

Add comment

Name:*
E-Mail:*
Text:
Bold Italic Underline Strike | Align left Center Align right | Insert smilies Insert link URLInsert protected URL Select color | Add Hidden Text Insert Quote Convert selected text from selection to Cyrillic (Russian) alphabet Insert spoiler
Enter the code: *

Create an account

Advertising