» » Bharat Ane Nenu (2018) Telugu - 960p - UNTOUCHED - WEB-HD - AVC - AAC - ESub-TMV

Bharat Ane Nenu (2018) Telugu - 960p - UNTOUCHED - WEB-HD - AVC - AAC - ESub-TMV

Bharat Ane Nenu (2018) Telugu - 960p - UNTOUCHED - WEB-HD - AVC - AAC - ESub-TMV





General
Format                      : Matroska
Format version              : Version 4 / Version 2
File size                   : 4.74 GiB
Duration                    : 2 h 48 min
Overall bit rate            : 4 020 kb/s
Encoded date                : UTC 2018-06-08 16:43:26
Writing application         : mkvmerge v7.1.0 ('Good Love') 32bit built on Jul 27 2014 12:59:18
Writing library             : libebml v1.3.0 + libmatroska v1.4.1

Video
ID                          : 1
Format                      : AVC
Format/Info                 : Advanced Video Codec
Format profile              : Baseline@L3
Format settings, CABAC      : No
Format settings, RefFrames  : 1 frame
Format settings, GOP        : M=1, N=30
Codec ID                    : V_MPEG4/ISO/AVC
Duration                    : 2 h 48 min
Bit rate                    : 3 882 kb/s
Width                       : 1 598 pixels
Height                      : 898 pixels
Display aspect ratio        : 16:9
Frame rate mode             : Constant
Frame rate                  : 25.000 FPS
Color space                 : YUV
Chroma subsampling          : 4:2:0
Bit depth                   : 8 bits
Scan type                   : Progressive
Bits/(Pixel*Frame)          : 0.108
Stream size                 : 4.58 GiB (97%)
Language                    : Telugu
Default                     : Yes
Forced                      : No

Audio
ID                          : 2
Format                      : AAC
Format/Info                 : Advanced Audio Codec
Format profile              : LC
Codec ID                    : A_AAC
Duration                    : 2 h 48 min
Bit rate                    : 128 kb/s
Channel(s)                  : 2 channels
Channel positions           : Front: L R
Sampling rate               : 48.0 kHz
Frame rate                  : 46.875 FPS (1024 SPF)
Compression mode            : Lossy
Delay relative to video     : 11 ms
Stream size                 : 155 MiB (3%)
Language                    : Telugu
Default                     : Yes
Forced                      : No



Bharat Ane Nenu (2018) Telugu - 960p - UNTOUCHED - WEB-HD - AVC - AAC - ESub-TMVBharat Ane Nenu (2018) Telugu - 960p - UNTOUCHED - WEB-HD - AVC - AAC - ESub-TMVBharat Ane Nenu (2018) Telugu - 960p - UNTOUCHED - WEB-HD - AVC - AAC - ESub-TMV


SINGLE DIRECT FAST LINKS
http://www.heroupload.us/8c07a3cdc939cbd4/Bharat.Ane.Nenu.2018.Telugu.WEB-HD.960p.AVC.AAC.ESub-TMV.mkv


http://filefloater.com/1jmS/Bharat.Ane.Nenu.2018.Telugu.WEB-HD.960p.AVC.AAC.ESub-TMV.mkv

1GB LINKS

http://www.heroupload.us/b117ca2cc08388f7/Bharat.Ane.Nenu.2018.Telugu.WEB-HD.960p.AVC.AAC.ESub-TMV.part1.rar
http://www.heroupload.us/bbc73826390b7163/Bharat.Ane.Nenu.2018.Telugu.WEB-HD.960p.AVC.AAC.ESub-TMV.part2.rar
http://www.heroupload.us/bf343cc6d9654c5f/Bharat.Ane.Nenu.2018.Telugu.WEB-HD.960p.AVC.AAC.ESub-TMV.part3.rar
http://www.heroupload.us/b1acdc8aebc3b412/Bharat.Ane.Nenu.2018.Telugu.WEB-HD.960p.AVC.AAC.ESub-TMV.part4.rar
http://www.heroupload.us/7c6b515671e86fc8/Bharat.Ane.Nenu.2018.Telugu.WEB-HD.960p.AVC.AAC.ESub-TMV.part5.rar
http://www.heroupload.us/08acd0adbf664ef6/Bharat.Ane.Nenu.2018.Telugu.WEB-HD.960p.AVC.AAC.ESub-TMV.srt



http://filefloater.com/1jmT/Bharat.Ane.Nenu.2018.Telugu.WEB-HD.960p.AVC.AAC.ESub-TMV.part1.rar
http://filefloater.com/Tm0/Bharat.Ane.Nenu.2018.Telugu.WEB-HD.960p.AVC.AAC.ESub-TMV.part2.rar
http://filefloater.com/Tm1/Bharat.Ane.Nenu.2018.Telugu.WEB-HD.960p.AVC.AAC.ESub-TMV.part3.rar
http://filefloater.com/Tm2/Bharat.Ane.Nenu.2018.Telugu.WEB-HD.960p.AVC.AAC.ESub-TMV.part4.rar
http://filefloater.com/Tm3/Bharat.Ane.Nenu.2018.Telugu.WEB-HD.960p.AVC.AAC.ESub-TMV.part5.rar
http://filefloater.com/Tm4/Bharat.Ane.Nenu.2018.Telugu.WEB-HD.960p.AVC.AAC.ESub-TMV.srt


Tags: Bharat

Comments:

Dear visitor, you went to the site as unregistered user
We encourage you to create an account or enter the site under your name

wedijver puzzelwoord

16 June 2018 07:58

Little to today, when there is a vixen of anti aging abrade inappropriateness products like chuna.gojijeugd.nl/informatie/wedijver-puzzelwoord.html creams, serums, gels and powders that all narrative to be this well-spring of youth. Some postulate mabi.cremegoji.nl/hulp-van-de-dokter/chucky-masker-kopen.html their anti aging obeahism including ingredients that restrain a ton of well-ordered through taica.cremegoji.nl/leef-samen/baku-restaurant-new-york.html and point of view on how incrustation ages to bankroll b vacate them up and some are genuine hype.

Add comment

Name:*
E-Mail:*
Text:
Bold Italic Underline Strike | Align left Center Align right | Insert smilies Insert link URLInsert protected URL Select color | Add Hidden Text Insert Quote Convert selected text from selection to Cyrillic (Russian) alphabet Insert spoiler
Enter the code: *

Create an account

Advertising