» » Rangasthalam (2018) Telugu - 700MB - 1CDRip - HDRip - x264 - AAC - ESub-TMV

Rangasthalam (2018) Telugu - 700MB - 1CDRip - HDRip - x264 - AAC - ESub-TMV

Rangasthalam (2018) Telugu - 700MB - 1CDRip - HDRip - x264 - AAC - ESub-TMV







General
Format                      : Matroska
Format version              : Version 4 / Version 2
File size                   : 693 MiB
Duration                    : 2 h 53 min
Overall bit rate            : 558 kb/s
Encoded date                : UTC 2018-05-13 19:24:40
Writing application         : mkvmerge v7.1.0 ('Good Love') 32bit built on Jul 27 2014 12:59:18
Writing library             : libebml v1.3.0 + libmatroska v1.4.1

Video
ID                          : 1
Format                      : AVC
Format/Info                 : Advanced Video Codec
Format profile              : Main@L3
Format settings, CABAC      : Yes
Format settings, RefFrames  : 4 frames
Codec ID                    : V_MPEG4/ISO/AVC
Duration                    : 2 h 53 min
Bit rate                    : 431 kb/s
Width                       : 720 pixels
Height                      : 304 pixels
Display aspect ratio        : 2.35:1
Frame rate mode             : Constant
Frame rate                  : 29.212 FPS
Color space                 : YUV
Chroma subsampling          : 4:2:0
Bit depth                   : 8 bits
Scan type                   : Progressive
Bits/(Pixel*Frame)          : 0.067
Stream size                 : 531 MiB (77%)
Writing library             : x264 core 112
Encoding settings           : cabac=1 / ref=2 / deblock=1:0:0 / analyse=0x1:0x111 / me=hex / subme=6 / psy=1 / psy_rd=1.00:0.00 / mixed_ref=0 / me_range=16 / chroma_me=1 / trellis=0 / 8x8dct=0 / cqm=0 / deadzone=21,11 / fast_pskip=1 / chroma_qp_offset=-2 / threads=12 / sliced_threads=0 / nr=0 / decimate=1 / interlaced=0 / constrained_intra=0 / bframes=2 / b_pyramid=2 / b_adapt=1 / b_bias=0 / direct=1 / weightb=0 / open_gop=0 / weightp=2 / keyint=290 / keyint_min=29 / scenecut=40 / intra_refresh=0 / rc_lookahead=40 / rc=abr / mbtree=1 / bitrate=431 / ratetol=1.0 / qcomp=0.60 / qpmin=3 / qpmax=51 / qpstep=4 / ip_ratio=1.40 / aq=1:1.00
Language                    : Telugu
Default                     : Yes
Forced                      : No
Color range                 : Limited
Color primaries             : BT.709
Transfer characteristics    : BT.709
Matrix coefficients         : BT.709

Audio
ID                          : 2
Format                      : AAC
Format/Info                 : Advanced Audio Codec
Format profile              : LC
Codec ID                    : A_AAC
Duration                    : 2 h 53 min
Bit rate                    : 128 kb/s
Channel(s)                  : 2 channels
Channel positions           : Front: L R
Sampling rate               : 44.1 kHz
Frame rate                  : 43.066 FPS (1024 SPF)
Compression mode            : Lossy
Stream size                 : 159 MiB (23%)
Language                    : Telugu
Default                     : Yes
Forced                      : No



Rangasthalam (2018) Telugu - 700MB - 1CDRip - HDRip - x264 - AAC - ESub-TMVRangasthalam (2018) Telugu - 700MB - 1CDRip - HDRip - x264 - AAC - ESub-TMVRangasthalam (2018) Telugu - 700MB - 1CDRip - HDRip - x264 - AAC - ESub-TMVRangasthalam (2018) Telugu - 700MB - 1CDRip - HDRip - x264 - AAC - ESub-TMVRangasthalam (2018) Telugu - 700MB - 1CDRip - HDRip - x264 - AAC - ESub-TMV


SINGLE DIRECT FAST LINKS

http://www.heroupload.us/7bef4a9857238127/Rangasthalam.2018.Telugu.HDRip.700MB.x264.1CD.AAC-TMV.mkv
http://www.heroupload.us/3d7cd3b8554a332a/Rangasthalam.2018.Telugu.HDRip.700MB.x264.1CD.AAC-TMV.srt



http://filefloater.com/1j6I/Rangasthalam.2018.Telugu.HDRip.700MB.x264.1CD.AAC-TMV.mkv
http://filefloater.com/1j6J/Rangasthalam.2018.Telugu.HDRip.700MB.x264.1CD.AAC-TMV.srt




Comments:

Dear visitor, you went to the site as unregistered user
We encourage you to create an account or enter the site under your name

Add comment

Name:*
E-Mail:*
Text:
Bold Italic Underline Strike | Align left Center Align right | Insert smilies Insert link URLInsert protected URL Select color | Add Hidden Text Insert Quote Convert selected text from selection to Cyrillic (Russian) alphabet Insert spoiler
Enter the code: *

Create an account

Advertising