» » Okka Kshanam (2017) Telugu - 700MB - 1CDRip - HDRip - XviD - MP3-MTR

Okka Kshanam (2017) Telugu - 700MB - 1CDRip - HDRip - XviD - MP3-MTR

Okka Kshanam (2017) Telugu - 700MB - 1CDRip - HDRip - XviD - MP3-MTR





General
Format                      : Matroska
Format version              : Version 4 / Version 2
File size                   : 703 MiB
Duration                    : 2 h 32 min
Overall bit rate            : 643 kb/s
Encoded date                : UTC 2018-03-11 10:46:39
Writing application         : mkvmerge v7.8.0 ('River Man') 64bit built on Mar 27 2015 16:31:37
Writing library             : libebml v1.3.1 + libmatroska v1.4.2
FileExtension_Invalid       : mkv mk3d mka mks

Video
ID                          : 1
Format                      : MPEG-4 Visual
Format profile              : Advanced Simple@L5
Format settings, BVOP       : 2
Format settings, QPel       : No
Format settings, GMC        : No warppoints
Format settings, Matrix     : Default (H.263)
Codec ID                    : V_MS/VFW/FOURCC / XVID
Codec ID/Hint               : XviD
Duration                    : 2 h 32 min
Bit rate                    : 609 kb/s
Width                       : 720 pixels
Height                      : 312 pixels
Display aspect ratio        : 2.35:1
Frame rate mode             : Constant
Frame rate                  : 30.143 FPS
Color space                 : YUV
Chroma subsampling          : 4:2:0
Bit depth                   : 8 bits
Scan type                   : Progressive
Compression mode            : Lossy
Bits/(Pixel*Frame)          : 0.090
Stream size                 : 666 MiB (95%)
Writing library             : XviD 67
Language                    : Telugu
Default                     : Yes
Forced                      : No

Audio
ID                          : 2
Format                      : MPEG Audio
Format version              : Version 1
Format profile              : Layer 3
Mode                        : Joint stereo
Mode extension              : MS Stereo
Codec ID                    : A_MPEG/L3
Codec ID/Hint               : MP3
Duration                    : 2 h 32 min
Bit rate mode               : Constant
Bit rate                    : 32.0 kb/s
Channel(s)                  : 2 channels
Sampling rate               : 48.0 kHz
Frame rate                  : 41.667 FPS (1152 SPF)
Compression mode            : Lossy
Stream size                 : 35.0 MiB (5%)
Writing library             : LAME3.99.5
Language                    : Telugu
Default                     : Yes
Forced                      : No



Okka Kshanam (2017) Telugu - 700MB - 1CDRip - HDRip - XviD - MP3-MTROkka Kshanam (2017) Telugu - 700MB - 1CDRip - HDRip - XviD - MP3-MTROkka Kshanam (2017) Telugu - 700MB - 1CDRip - HDRip - XviD - MP3-MTROkka Kshanam (2017) Telugu - 700MB - 1CDRip - HDRip - XviD - MP3-MTROkka Kshanam (2017) Telugu - 700MB - 1CDRip - HDRip - XviD - MP3-MTROkka Kshanam (2017) Telugu - 700MB - 1CDRip - HDRip - XviD - MP3-MTR

SINGLE DIRECT FAST LINKS


http://www.heroupload.us/f8d37fa0fdf51fc6/Okka.Kshanam.2017.Telugu.HDRip.XviD.MP3.700MB-MTR.avi



http://filefloater.com/7pi/Okka.Kshanam.2017.Telugu.HDRip.XviD.MP3.700MB-MTR.avi




Tags: Okka

Comments:

Dear visitor, you went to the site as unregistered user
We encourage you to create an account or enter the site under your name

Add comment

Name:*
E-Mail:*
Text:
Bold Italic Underline Strike | Align left Center Align right | Insert smilies Insert link URLInsert protected URL Select color | Add Hidden Text Insert Quote Convert selected text from selection to Cyrillic (Russian) alphabet Insert spoiler
Enter the code: *

Create an account

Advertising